<svg xmlns="http://www.w3.org/2000/svg"><defs><font horiz-adv-x="1024"><font-face ascent="960" descent="-64" units-per-em="1024"/><missing-glyph horiz-adv-x="1024"/><glyph d="" horiz-adv-x="512" unicode="&#x20;"/><glyph d="M608 768h160v192h-160c-123.514 0-224-100.486-224-224v-96h-128v-192h128v-512h192v512h160l32 192h-192v96c0 17.346 14.654 32 32 32z" glyph-name="facebook" unicode="&#xe900;"/><glyph d="M1024 733.6c-37.6-16.8-78.2-28-120.6-33 43.4 26 76.6 67.2 92.4 116.2-40.6-24-85.6-41.6-133.4-51-38.4 40.8-93 66.2-153.4 66.2-116 0-210-94-210-210 0-16.4 1.8-32.4 5.4-47.8-174.6 8.8-329.4 92.4-433 219.6-18-31-28.4-67.2-28.4-105.6 0-72.8 37-137.2 93.4-174.8-34.4 1-66.8 10.6-95.2 26.2 0-.8 0-1.8 0-2.6 0-101.8 72.4-186.8 168.6-206-17.6-4.8-36.2-7.4-55.4-7.4-13.6 0-26.6 1.4-39.6 3.8 26.8-83.4 104.4-144.2 196.2-146-72-56.4-162.4-90-261-90-17 0-33.6 1-50.2 3 93.2-59.8 203.6-94.4 322.2-94.4 386.4 0 597.8 320.2 597.8 597.8 0 9.2-.2 18.2-.6 27.2 41 29.4 76.6 66.4 104.8 108.6z" glyph-name="twitter" unicode="&#xe901;"/><glyph d="M791.498 415.908c-1.294 129.682 105.758 191.876 110.542 194.966-60.152 88.02-153.85 100.078-187.242 101.472-79.742 8.074-155.596-46.948-196.066-46.948-40.368 0-102.818 45.754-168.952 44.552-86.916-1.292-167.058-50.538-211.812-128.38-90.304-156.698-23.126-388.84 64.89-515.926 43.008-62.204 94.292-132.076 161.626-129.58 64.842 2.588 89.362 41.958 167.756 41.958s100.428-41.958 169.05-40.67c69.774 1.296 113.982 63.398 156.692 125.796 49.39 72.168 69.726 142.038 70.924 145.626-1.548.706-136.06 52.236-137.408 207.134zM662.562 796.478c35.738 43.358 59.86 103.512 53.28 163.522-51.478-2.096-113.878-34.29-150.81-77.55-33.142-38.376-62.148-99.626-54.374-158.436 57.466-4.484 116.128 29.204 151.904 72.464z" glyph-name="appleinc" unicode="&#xe902;"/><glyph d="M896 576c-35.2 0-64-28.8-64-64v-256c0-35.2 28.8-64 64-64s64 28.8 64 64v256c0 35.2-28.8 64-64 64zM128 576c-35.2 0-64-28.8-64-64v-256c0-35.2 28.8-64 64-64s64 28.8 64 64v256c0 35.2-28.802 64-64 64zM224 224c0-53.02 42.98-96 96-96v0-128c0-35.2 28.8-64 64-64s64 28.8 64 64v128h128v-128c0-35.2 28.8-64 64-64s64 28.8 64 64v128c53.02 0 96 42.98 96 96v352h-576v-352zM798.216 639.998c-9.716 87.884-59.004 163.792-129.62 209.646l32.024 64.046c7.904 15.806 1.496 35.028-14.31 42.932s-35.03 1.496-42.932-14.312l-32.142-64.286-8.35 3.316c-28.568 9.502-59.122 14.66-90.886 14.66-31.762 0-62.316-5.158-90.888-14.656l-8.348-3.316-32.142 64.282c-7.904 15.808-27.128 22.212-42.932 14.312-15.808-7.904-22.214-27.126-14.312-42.932l32.022-64.046c-70.616-45.852-119.904-121.762-129.622-209.644v-32h574.222v31.998h-1.784zM416 704c-17.674 0-32 14.328-32 32 0 17.648 14.288 31.958 31.93 31.996.032 0 .062-.002.094-.002.018 0 .036.002.052.002 17.638-.042 31.924-14.35 31.924-31.996 0-17.672-14.326-32-32-32zM608 704c-17.674 0-32 14.328-32 32 0 17.646 14.286 31.954 31.924 31.996.016 0 .034-.002.05-.002.032 0 .064.002.096.002 17.64-.038 31.93-14.348 31.93-31.996 0-17.672-14.326-32-32-32z" glyph-name="android" unicode="&#xe903;"/><glyph d="M425.6 922.6c-1.6 1-3.4 1.8-5 2.6-1.8-.4-3.4-.6-5.2-1l10.2-1.6zM36.8 539c-.4-1.8-.6-3.6-.8-5.2 1-1.6 1.6-3.2 2.6-4.8l-1.8 10zM986.8 357.4c.4 1.8.6 3.6 1 5.4-1 1.6-1.6 3.2-2.6 4.8l1.6-10.2zM592-23c1.6-1 3.4-1.8 5-2.6 1.8.4 3.6.6 5.4.8l-10.4 1.8zM987.8 362.8c-.4-1.8-.6-3.6-1-5.4l-1.8 10.4c1-1.8 1.8-3.4 2.8-5 5.2 28.8 8 58.2 8 87.6 0 65.2-12.8 128.6-38 188.2-24.4 57.6-59.2 109.4-103.6 153.8s-96.2 79.2-153.6 103.6c-59.6 25.2-123 38-188.2 38-30.8 0-61.6-2.8-91.6-8.6 0 0-.2 0-.2 0 1.6-.8 3.4-1.6 5-2.6l-10.2 1.6c1.8.4 3.4.6 5.2 1-41.2 21.8-87.4 33.6-134.2 33.6-76.4 0-148.4-29.8-202.4-83.8s-83.8-126-83.8-202.4c0-48.6 12.6-96.6 36-138.8.4 1.8.6 3.6.8 5.2l1.8-10.2c-1 1.6-1.8 3.2-2.6 4.8-4.8-27.4-7.2-55.4-7.2-83.4 0-65.2 12.8-128.6 38-188.2 24.4-57.6 59.2-109.2 103.6-153.6s96.2-79.2 153.8-103.6c59.6-25.2 123-38 188.2-38 28.4 0 56.8 2.6 84.6 7.6-1.6 1-3.2 1.8-5 2.6l10.4-1.8c-1.8-.4-3.6-.6-5.4-.8 42.8-24.2 91.4-37.2 140.8-37.2 76.4 0 148.4 29.8 202.4 83.8s83.8 126 83.8 202.4c-.2 48.6-12.8 96.6-36.4 139.2zM514.2 154.2c-171.8 0-248.6 84.4-248.6 147.8 0 32.4 24 55.2 57 55.2 73.6 0 54.4-105.6 191.6-105.6 70.2 0 109 38.2 109 77.2 0 23.4-11.6 49.4-57.8 60.8l-152.8 38.2c-123 30.8-145.4 97.4-145.4 160 0 129.8 122.2 178.6 237 178.6 105.8 0 230.4-58.4 230.4-136.4 0-33.4-29-52.8-62-52.8-62.8 0-51.2 86.8-177.6 86.8-62.8 0-97.4-28.4-97.4-69s49.6-53.6 92.6-63.4l113.2-25.2c123.8-27.6 155.2-100 155.2-168 0-105.4-81-184.2-244.4-184.2z" glyph-name="skype" unicode="&#xe904;"/><glyph d="M384 576h177.106v-90.782h2.532c24.64 44.194 84.958 90.782 174.842 90.782 186.946 0 221.52-116.376 221.52-267.734v-308.266h-184.61v273.278c0 65.184-1.334 149.026-96.028 149.026-96.148 0-110.82-70.986-110.82-144.292v-278.012h-184.542v576zM64 576h192v-576h-192v576zM256 736c0-53.019-42.981-96-96-96s-96 42.981-96 96c0 53.019 42.981 96 96 96s96-42.981 96-96z" glyph-name="linkedin2" unicode="&#xe905;"/><glyph d="M853.31 960h-682.62c-93.88 0-170.69-76.784-170.69-170.658v-682.656c0-93.876 76.81-170.686 170.69-170.686h682.622c93.938 0 170.688 76.81 170.688 170.686v682.656c0 93.874-76.75 170.658-170.69 170.658zM256 704h512c9.138 0 18.004-1.962 26.144-5.662l-282.144-329.168-282.144 329.17c8.14 3.696 17.006 5.66 26.144 5.66zM192 256v384c0 1.34.056 2.672.14 4l187.664-218.94-185.598-185.6c-1.444 5.338-2.206 10.886-2.206 16.54zM768 192h-512c-5.654 0-11.202.762-16.54 2.206l182.118 182.118 90.422-105.496 90.424 105.494 182.116-182.118c-5.34-1.442-10.886-2.204-16.54-2.204zM832 256c0-5.654-.762-11.2-2.206-16.54l-185.598 185.598 187.664 218.942c.084-1.328.14-2.66.14-4v-384z" glyph-name="mail" unicode="&#xe906;"/><glyph d="M522.2 521.2v-175.6h290.4c-11.8-75.4-87.8-220.8-290.4-220.8-174.8 0-317.4 144.8-317.4 323.2s142.6 323.2 317.4 323.2c99.4 0 166-42.4 204-79l139 133.8c-89.2 83.6-204.8 134-343 134-283 0-512-229-512-512s229-512 512-512c295.4 0 491.6 207.8 491.6 500.2 0 33.6-3.6 59.2-8 84.8l-483.6.2z" glyph-name="google" unicode="&#xe907;"/><glyph d="M928 960h-832c-52.8 0-96-43.2-96-96v-832c0-52.8 43.2-96 96-96h832c52.8 0 96 43.2 96 96v832c0 52.8-43.2 96-96 96zM519.6 64c-212.2 0-384 171.8-384 384s171.8 384 384 384c103.6 0 190.4-37.8 257.2-100.4l-104.2-100.4c-28.6 27.4-78.4 59.2-153 59.2-131.2 0-238-108.6-238-242.4s107-242.4 238-242.4c152 0 209 109.2 217.8 165.6h-217.8v131.6h362.6c3.2-19.2 6-38.4 6-63.6.2-219.4-146.8-375.2-368.6-375.2z" glyph-name="google2" unicode="&#xe908;"/><glyph d="M325.8 502.6v-111.8h184.8c-7.4-48-55.8-140.6-184.8-140.6-111.2 0-202 92.2-202 205.8s90.8 205.8 202 205.8c63.4 0 105.6-27 129.8-50.2l88.4 85.2c-56.8 53-130.4 85.2-218.2 85.2-180.2-.2-325.8-145.8-325.8-326s145.6-325.8 325.8-325.8c188 0 312.8 132.2 312.8 318.4 0 21.4-2.4 37.8-5.2 54h-307.6zM1024 512h-96v96h-96v-96h-96v-96h96v-96h96v96h96z" glyph-name="google-plus" unicode="&#xe909;"/><glyph d="M928 960h-832c-52.8 0-96-43.2-96-96v-832c0-52.8 43.2-96 96-96h832c52.8 0 96 43.2 96 96v832c0 52.8-43.2 96-96 96zM384 192c-141.6 0-256 114.4-256 256s114.4 256 256 256c69.2 0 127-25.2 171.6-67l-69.6-66.8c-19 18.2-52.2 39.4-102 39.4-87.4 0-158.8-72.4-158.8-161.6s71.4-161.6 158.8-161.6c101.4 0 139.4 72.8 145.2 110.4h-145.2v87.8h241.8c2.2-12.8 4-25.6 4-42.4 0-146.4-98-250.2-245.8-250.2zM896 448h-64v-64h-64v64h-64v64h64v64h64v-64h64v-64z" glyph-name="google-plus2" unicode="&#xe90a;"/><glyph d="M512 960c-282.8 0-512-229.2-512-512s229.2-512 512-512 512 229.2 512 512-229.2 512-512 512zM384 192c-141.6 0-256 114.4-256 256s114.4 256 256 256c69.2 0 127-25.2 171.6-67l-69.6-66.8c-19 18.2-52.2 39.4-102 39.4-87.4 0-158.8-72.4-158.8-161.6s71.4-161.6 158.8-161.6c101.4 0 139.4 72.8 145.2 110.4h-145.2v87.8h241.8c2.2-12.8 4-25.6 4-42.4 0-146.4-98-250.2-245.8-250.2zM832 448v-64h-64v64h-64v64h64v64h64v-64h64v-64h-64z" glyph-name="google-plus3" unicode="&#xe90b;"/><glyph d="M438 320l-184.6-320h580.6l184.6 320zM992.4 384l-295.6 512h-369.6l295.6-512zM290.2 832l-290.2-502.8 184.8-320 290.2 502.8z" glyph-name="google-drive" unicode="&#xe90c;"/><glyph d="M928 960h-832c-52.8 0-96-43.2-96-96v-832c0-52.8 43.2-96 96-96h416v448h-128v128h128v64c0 105.8 86.2 192 192 192h128v-128h-128c-35.2 0-64-28.8-64-64v-64h192l-32-128h-160v-448h288c52.8 0 96 43.2 96 96v832c0 52.8-43.2 96-96 96z" glyph-name="facebook2" unicode="&#xe90d;"/><glyph d="M928 960h-832c-52.8 0-96-43.2-96-96v-832c0-52.8 43.2-96 96-96h832c52.8 0 96 43.2 96 96v832c0 52.8-43.2 96-96 96zM704 800c0 17.6 14.4 32 32 32h128c17.6 0 32-14.4 32-32v-128c0-17.6-14.4-32-32-32h-128c-17.6 0-32 14.4-32 32v128zM512 640c106 0 192-86 192-192s-86-192-192-192c-106 0-192 86-192 192s86 192 192 192zM896 96v0c0-17.6-14.4-32-32-32h-704c-17.6 0-32 14.4-32 32v0 416h70.4c-4.2-20.6-6.4-42-6.4-64 0-176.8 143.2-320 320-320s320 143.2 320 320c0 22-2.2 43.4-6.4 64h70.4v-416z" glyph-name="instagram" unicode="&#xe90e;"/><glyph d="M873 811.2c-95.8 96-223.2 148.8-359 148.8-279.6 0-507.2-227.6-507.2-507.4 0-89.4 23.4-176.8 67.8-253.6l-72-263 269 70.6c74.2-40.4 157.6-61.8 242.4-61.8h.2c0 0 0 0 0 0 279.6 0 507.4 227.6 507.4 507.4 0 135.6-52.8 263-148.6 359zM514.2 30.4v0c-75.8 0-150 20.4-214.8 58.8l-15.4 9.2-159.6-41.8 42.6 155.6-10 16c-42.4 67-64.6 144.6-64.6 224.4 0 232.6 189.2 421.8 422 421.8 112.6 0 218.6-44 298.2-123.6 79.6-79.8 123.4-185.6 123.4-298.4-.2-232.8-189.4-422-421.8-422zM745.4 346.4c-12.6 6.4-75 37-86.6 41.2s-20 6.4-28.6-6.4c-8.4-12.6-32.8-41.2-40.2-49.8-7.4-8.4-14.8-9.6-27.4-3.2s-53.6 19.8-102 63c-37.6 33.6-63.2 75.2-70.6 87.8s-.8 19.6 5.6 25.8c5.8 5.6 12.6 14.8 19 22.2s8.4 12.6 12.6 21.2c4.2 8.4 2.2 15.8-1 22.2s-28.6 68.8-39 94.2c-10.2 24.8-20.8 21.4-28.6 21.8-7.4.4-15.8.4-24.2.4s-22.2-3.2-33.8-15.8c-11.6-12.6-44.4-43.4-44.4-105.8s45.4-122.6 51.8-131.2c6.4-8.4 89.4-136.6 216.6-191.4 30.2-13 53.8-20.8 72.2-26.8 30.4-9.6 58-8.2 79.8-5 24.4 3.6 75 30.6 85.6 60.2s10.6 55 7.4 60.2c-3 5.6-11.4 8.8-24.2 15.2z" glyph-name="whatsapp" unicode="&#xe90f;"/><glyph d="M928 960h-832c-52.8 0-96-43.2-96-96v-832c0-52.8 43.2-96 96-96h832c52.8 0 96 43.2 96 96v832c0 52.8-43.2 96-96 96zM829.4 243.2l-93.6-1.4c0 0-20.2-4-46.6 14.2-35 24-68 86.6-93.8 78.4-26-8.2-25.2-64.4-25.2-64.4s.2-12-5.8-18.4c-6.4-7-19.2-8.4-19.2-8.4h-41.8c0 0-92.4-5.6-173.8 79.2-88.8 92.4-167.2 275.8-167.2 275.8s-4.6 12 .4 17.8c5.6 6.6 20.6 7 20.6 7l100.2.6c0 0 9.4-1.6 16.2-6.6 5.6-4 8.6-11.8 8.6-11.8s16.2-41 37.6-78c41.8-72.2 61.4-88 75.6-80.4 20.6 11.2 14.4 102.2 14.4 102.2s.4 33-10.4 47.6c-8.4 11.4-24.2 14.8-31 15.6-5.6.8 3.6 13.8 15.6 19.8 18 8.8 49.8 9.4 87.4 9 29.2-.2 37.8-2.2 49.2-4.8 34.6-8.4 22.8-40.6 22.8-117.8 0-24.8-4.4-59.6 13.4-71 7.6-5 26.4-.8 73.4 79 22.2 37.8 39 82.2 39 82.2s3.6 8 9.2 11.4c5.8 3.4 13.6 2.4 13.6 2.4l105.4.6c0 0 31.6 3.8 36.8-10.6 5.4-15-11.8-50-54.8-107.4-70.6-94.2-78.6-85.4-19.8-139.8 56-52 67.6-77.4 69.6-80.6 22.8-38.4-26-41.4-26-41.4z" glyph-name="vk" unicode="&#xe910;"/><glyph d="M1013.8 652.8c0 0-10 70.6-40.8 101.6-39 40.8-82.6 41-102.6 43.4-143.2 10.4-358.2 10.4-358.2 10.4h-.4c0 0-215 0-358.2-10.4-20-2.4-63.6-2.6-102.6-43.4-30.8-31-40.6-101.6-40.6-101.6s-10.2-82.8-10.2-165.8v-77.6c0-82.8 10.2-165.8 10.2-165.8s10-70.6 40.6-101.6c39-40.8 90.2-39.4 113-43.8 82-7.8 348.2-10.2 348.2-10.2s215.2.4 358.4 10.6c20 2.4 63.6 2.6 102.6 43.4 30.8 31 40.8 101.6 40.8 101.6s10.2 82.8 10.2 165.8v77.6c-.2 82.8-10.4 165.8-10.4 165.8zM406.2 315.2v287.8l276.6-144.4-276.6-143.4z" glyph-name="youtube" unicode="&#xe911;"/><glyph d="M1023.6 686c-4.6-99.6-74.2-236.2-208.8-409.4-139.2-180.8-257-271.4-353.4-271.4-59.6 0-110.2 55-151.4 165.2-27.6 101-55 202-82.6 303-30.6 110.2-63.4 165.2-98.6 165.2-7.6 0-34.4-16.2-80.4-48.2l-48.2 62c50.6 44.4 100.4 88.8 149.4 133.2 67.4 58.2 118 88.8 151.8 92 79.6 7.6 128.8-46.8 147.2-163.4 19.8-125.8 33.6-204 41.4-234.6 23-104.4 48.2-156.6 75.8-156.6 21.4 0 53.6 33.8 96.6 101.6 42.8 67.6 65.8 119.2 69 154.6 6.2 58.4-16.8 87.8-69 87.8-24.6 0-49.8-5.6-75.8-16.8 50.4 164.8 146.4 244.8 288.4 240.2 105-2.8 154.6-71 148.6-204.4z" glyph-name="vimeo" unicode="&#xe912;"/><glyph d="M928 960h-832c-52.8 0-96-43.2-96-96v-832c0-52.8 43.2-96 96-96h832c52.8 0 96 43.2 96 96v832c0 52.8-43.2 96-96 96zM861.6 620c-3.2-72-53.6-170.6-151-295.8-100.6-130.8-185.8-196.2-255.4-196.2-43.2 0-79.6 39.8-109.4 119.4-20 73-39.8 146-59.8 219-22 79.6-45.8 119.4-71.2 119.4-5.6 0-25-11.6-58-34.8l-34.8 44.8c36.6 32 72.6 64.2 108 96.2 48.8 42 85.2 64.2 109.6 66.4 57.6 5.6 93-33.8 106.4-118 14.4-91 24.4-147.4 30-169.6 16.6-75.4 34.8-113 54.8-113 15.4 0 38.8 24.4 69.8 73.4s47.6 86.2 49.8 111.8c4.4 42.2-12.2 63.4-49.8 63.4-17.8 0-36-4-54.8-12.2 36.4 119 105.8 177 208.4 173.6 76-2.2 111.8-51.4 107.4-147.8z" glyph-name="vimeo2" unicode="&#xe913;"/><glyph d="M0 416c0 123.712 100.288 224 224 224s224-100.288 224-224c0-123.712-100.288-224-224-224s-224 100.288-224 224zM576 416c0 123.712 100.288 224 224 224s224-100.288 224-224c0-123.712-100.288-224-224-224s-224 100.288-224 224z" glyph-name="flickr" unicode="&#xe914;"/><glyph d="M800 544c-70.58 0-128-57.42-128-128s57.42-128 128-128c70.58 0 128 57.42 128 128s-57.42 128-128 128zM800 640v0c123.71 0 224-100.288 224-224 0-123.71-100.29-224-224-224s-224 100.29-224 224c0 123.712 100.29 224 224 224zM0 416c0 123.712 100.288 224 224 224s224-100.288 224-224c0-123.712-100.288-224-224-224s-224 100.288-224 224z" glyph-name="flickr2" unicode="&#xe915;"/><glyph d="M928 960h-832c-52.8 0-96-43.2-96-96v-832c0-52.8 43.2-96 96-96h832c52.8 0 96 43.2 96 96v832c0 52.8-43.2 96-96 96zM288 288c-88.4 0-160 71.6-160 160s71.6 160 160 160 160-71.6 160-160-71.6-160-160-160zM736 288c-88.4 0-160 71.6-160 160s71.6 160 160 160c88.4 0 160-71.6 160-160s-71.6-160-160-160z" glyph-name="flickr3" unicode="&#xe916;"/><glyph d="M512 960c-282.77 0-512-230.796-512-515.5s229.23-515.5 512-515.5 512 230.796 512 515.5-229.23 515.5-512 515.5zM288 288c-88.366 0-160 71.634-160 160s71.634 160 160 160 160-71.634 160-160c0-88.366-71.634-160-160-160zM736 288c-88.368 0-160 71.634-160 160s71.632 160 160 160 160-71.634 160-160c0-88.366-71.632-160-160-160z" glyph-name="flickr4" unicode="&#xe917;"/><glyph d="M512-64c-282.4 0-512 229.6-512 512s229.6 512 512 512c282.4 0 512-229.6 512-512s-229.6-512-512-512v0zM943.8 378c-15 4.8-135.4 40.6-272.4 18.6 57.2-157.2 80.4-285.2 85-311.8 98 66.4 168 171.4 187.4 293.2v0zM682.8 44.8c-6.6 38.4-31.8 172-93.2 331.6-1-.4-2-.6-2.8-1-246.8-86-335.4-257-343.2-273 74.2-57.8 167.4-92.4 268.4-92.4 60.6 0 118.4 12.4 170.8 34.8v0zM187 155c10 17 130 215.6 355.4 288.6 5.6 1.8 11.4 3.6 17.2 5.2-11 24.8-23 49.8-35.4 74.2-218.2-65.4-430.2-62.6-449.4-62.4-.2-4.4-.2-8.8-.2-13.4 0-112.2 42.6-214.8 112.4-292.2v0zM84 537c19.6-.2 199.8-1 404.4 53.2-72.4 128.8-150.6 237.2-162.2 253-122.4-57.8-214-170.6-242.2-306.2v0zM409.6 872.6c12-16.2 91.6-124.4 163.2-256 155.6 58.2 221.4 146.8 229.2 158-77.2 68.6-178.8 110.2-290 110.2-35.2-.2-69.6-4.4-102.4-12.2v0zM850.6 723.8c-9.2-12.4-82.6-106.4-244.2-172.4 10.2-20.8 20-42 29-63.4 3.2-7.6 6.4-15 9.4-22.6 145.6 18.2 290.2-11 304.6-14-1 103.2-38 198-98.8 272.4v0z" glyph-name="dribbble" unicode="&#xe918;"/><glyph d="M297 754.8c30.2 0 57.4-2.6 82.2-8 24.8-5.2 45.8-14 63.6-26 17.6-12 31.2-28 41.2-48 9.6-19.8 14.4-44.6 14.4-74 0-31.8-7.2-58.2-21.6-79.4-14.6-21.2-35.8-38.4-64.2-52 38.8-11.2 67.4-30.8 86.6-58.6 19.2-28 28.4-61.6 28.4-101.2 0-32-6.2-59.4-18.4-82.6-12.4-23.4-29.2-42.4-49.8-57-20.8-14.8-44.8-25.6-71.6-32.6-26.6-7-54-10.6-82.4-10.6h-305.4v630h297zM279 500.4c24.6 0 45 5.8 61 17.6 16 11.6 23.6 30.8 23.6 57.2 0 14.6-2.6 26.8-7.8 36.2-5.4 9.4-12.4 16.8-21.4 22-8.8 5.4-18.8 9-30.6 11-11.4 2.2-23.4 3.2-35.6 3.2h-129.6v-147.2h140.4zM286.6 232.2c13.6 0 26.6 1.2 38.8 4 12.4 2.8 23.4 7 32.6 13.4 9.2 6.2 17 14.4 22.6 25.2 5.6 10.6 8.2 24.2 8.2 40.8 0 32.4-9.2 55.6-27.4 69.6-18.2 13.8-42.4 20.6-72.4 20.6h-150.4v-173.4h148zM725.2 234.4c18.8-18.4 45.8-27.6 81-27.6 25.2 0 47.2 6.4 65.4 19.2s29.2 26.4 33.4 40.4h110.4c-17.8-55-44.6-94-81.4-117.6-36.2-23.6-80.6-35.6-132-35.6-36 0-68.2 5.8-97.2 17.2-29 11.6-53.2 27.8-73.6 49-19.8 21.2-35.4 46.4-46.4 76-10.8 29.4-16.4 62-16.4 97.2 0 34.2 5.6 66 16.8 95.4 11.4 29.6 27 55 47.8 76.4s45.2 38.4 74 50.8c28.6 12.4 60.2 18.6 95.2 18.6 38.6 0 72.4-7.4 101.4-22.6 28.8-15 52.6-35.2 71.2-60.4s31.8-54.2 40-86.6c8.2-32.4 11-66.2 8.8-101.6h-329.4c0-35.8 12-70 31-88.2zM869 474c-14.8 16.4-40.2 25.4-70.8 25.4-20 0-36.6-3.4-49.8-10.2-13-6.8-23.6-15.2-31.8-25.2-8-10-13.6-20.8-16.8-32.2-3.2-11-5.2-21.2-5.8-30h204c-3 32-14 55.6-29 72.2zM668.4 704h255.4v-62.2h-255.4v62.2z" glyph-name="behance" unicode="&#xe919;"/><glyph d="M404.2 511.4c13 9.4 19.2 25 19.2 46.6 0 12-2 21.8-6.2 29.4-4.4 7.6-10 13.6-17.4 17.8-7.2 4.4-15.4 7.4-24.8 9-9.2 1.8-19 2.6-29 2.6h-105.4v-119.6h114c20-.2 36.6 4.6 49.6 14.2zM422 403.4c-14.8 11.2-34.4 16.8-58.8 16.8h-122.6v-141h120.2c11.2 0 21.6 1 31.6 3.2s19 5.6 26.6 10.8c7.6 5 13.8 11.8 18.4 20.4s6.8 19.8 6.8 33.2c0 26.4-7.4 45.2-22.2 56.6zM928 960h-832c-52.8 0-96-43.2-96-96v-832c0-52.8 43.2-96 96-96h832c52.8 0 96 43.2 96 96v832c0 52.8-43.2 96-96 96zM671.2 690.6h207.4v-50.6h-207.4v50.6zM541.6 273.6c-10-19-23.6-34.4-40.4-46.4-17-12-36.4-20.8-58.2-26.6-21.6-5.8-44-8.6-66.8-8.6h-248.2v511.8h241.2c24.4 0 46.6-2.2 66.8-6.4 20-4.2 37.2-11.4 51.6-21.2 14.2-9.8 25.4-22.8 33.4-39 7.8-16 11.8-36.2 11.8-60 0-25.8-5.8-47.2-17.6-64.4s-29-31.2-52.2-42.2c31.6-9 54.8-25 70.2-47.6 15.6-22.8 23.2-50.2 23.2-82.2.2-26.2-4.8-48.6-14.8-67.2zM959.4 352.8h-267.4c0-29.2 10-57 25.2-72 15.2-14.8 37.2-22.4 65.8-22.4 20.6 0 38.2 5.2 53.2 15.6 14.8 10.4 23.8 21.4 27.2 32.8h89.6c-14.4-44.6-36.2-76.4-66-95.6-29.4-19.2-65.4-28.8-107.2-28.8-29.2 0-55.4 4.8-79 14-23.6 9.4-43.2 22.6-59.8 39.8-16.2 17.2-28.6 37.8-37.6 61.8-8.8 23.8-13.4 50.4-13.4 79 0 27.8 4.6 53.6 13.6 77.6 9.2 24 22 44.8 38.8 62 16.8 17.4 36.8 31.2 60 41.4 23.2 10 48.8 15 77.2 15 31.4 0 58.8-6 82.4-18.4 23.4-12.2 42.6-28.6 57.8-49.2s25.8-44 32.6-70.4c6.6-26 8.8-53.4 7-82.2zM776.6 496.2c-16.2 0-29.8-2.8-40.4-8.4s-19.2-12.4-25.8-20.4c-6.6-8.2-11-16.8-13.6-26.2-2.6-9-4.2-17.2-4.6-24.4h165.6c-2.4 26-11.4 45.2-23.4 58.6-12.4 13.6-32.8 20.8-57.8 20.8z" glyph-name="behance2" unicode="&#xe91a;"/><glyph d="M704 672c0 53.019 42.981 96 96 96s96-42.981 96-96c0-53.019-42.981-96-96-96s-96 42.981-96 96zM958.392 830.392c-87.478 87.476-229.306 87.476-316.786 0-35.578-35.578-56.684-80.146-63.322-126.392v0l-204.694-310.228c-27.506-1.41-54.776-8.416-79.966-21.016l-157.892 123.424c-36.55 28.574-89.342 22.102-117.912-14.448-28.572-36.55-22.102-89.342 14.448-117.912l155.934-121.892c-16.96-66.782.672-140.538 52.93-192.794 78.906-78.904 206.832-78.904 285.736 0 48.466 48.466 67.15 115.428 56.076 178.166l249.054 222.986c46.248 6.638 90.816 27.744 126.394 63.322 87.478 87.476 87.478 229.306 0 316.784zM384 57.302c-74.39 0-134.698 60.304-134.698 134.698 0 .712.042 1.414.054 2.124l66.912-52.304c15.36-12.006 33.582-17.824 51.674-17.824 24.962 0 49.672 11.08 66.238 32.272 28.572 36.55 22.102 89.342-14.448 117.912l-63.5 49.636c8.962 1.878 18.248 2.88 27.768 2.88 74.392 0 134.698-60.304 134.698-134.698s-60.306-134.696-134.698-134.696zM800 512c-88.366 0-160 71.634-160 160s71.634 160 160 160 160-71.634 160-160-71.634-160-160-160z" glyph-name="steam" unicode="&#xe91b;"/><glyph d="M736 928l-224-192 288-192 224 192zM512 736l-224 192-288-192 224-192zM800 544l224-192-288-160-224 192zM512 384l-288 160-224-192 288-160zM728.156 114.43l-216.156 185.278-216.158-185.278-135.842 75.468v-93.898l352-160 352 160v93.898z" glyph-name="dropbox" unicode="&#xe91c;"/><glyph d="M512.008 947.358c-282.738 0-512.008-229.218-512.008-511.998 0-226.214 146.704-418.132 350.136-485.836 25.586-4.738 34.992 11.11 34.992 24.632 0 12.204-.48 52.542-.696 95.324-142.448-30.976-172.504 60.41-172.504 60.41-23.282 59.176-56.848 74.916-56.848 74.916-46.452 31.778 3.51 31.124 3.51 31.124 51.4-3.61 78.476-52.766 78.476-52.766 45.672-78.27 119.776-55.64 149.004-42.558 4.588 33.086 17.852 55.68 32.506 68.464-113.73 12.942-233.276 56.85-233.276 253.032 0 55.898 20.004 101.574 52.76 137.428-5.316 12.9-22.854 64.972 4.952 135.5 0 0 43.006 13.752 140.84-52.49 40.836 11.348 84.636 17.036 128.154 17.234 43.502-.198 87.336-5.886 128.256-17.234 97.734 66.244 140.656 52.49 140.656 52.49 27.872-70.528 10.35-122.6 5.036-135.5 32.82-35.856 52.694-81.532 52.694-137.428 0-196.654-119.778-239.95-233.79-252.624 18.364-15.89 34.724-47.046 34.724-94.812 0-68.508-.596-123.644-.596-140.508 0-13.628 9.222-29.594 35.172-24.566 203.322 67.776 349.842 259.626 349.842 485.768 0 282.78-229.234 511.998-511.992 511.998z" glyph-name="github" unicode="&#xe91d;"/><glyph d="M957.796 576h-57.406c-35.166 0-65.988 29.742-68.39 64v0c.004 182.668-147.258 320-331.19 320h-167.824c-183.812 0-332.856-148-332.986-330.666v-362.798c0-182.654 149.174-330.536 332.984-330.536h358.42c183.948 0 332.596 147.882 332.596 330.536v234.382c0 36.502-29.44 75.082-66.204 75.082zM320 704h192c35.2 0 64-28.8 64-64s-28.8-64-64-64h-192c-35.2 0-64 28.8-64 64s28.8 64 64 64zM704 192h-384c-35.2 0-64 28.8-64 64s28.8 64 64 64h384c35.2 0 64-28.8 64-64s-28.8-64-64-64z" glyph-name="blogger" unicode="&#xe91e;"/><glyph d="M928 960h-832c-52.8 0-96-43.2-96-96v-832c0-52.8 43.2-96 96-96h832c52.8 0 96 43.2 96 96v832c0 52.8-43.2 96-96 96zM896 312c0-137-111.4-248-249.4-248h-268.8c-138 0-249.8 111-249.8 248v272c0 137 111.8 248 249.8 248h125.8c138 0 248.4-103 248.4-240 1.8-25.6 25-48 51.2-48h43c27.6 0 49.6-29 49.6-56.4v-175.6zM704 320c0-35.2-28.8-64-64-64h-256c-35.2 0-64 28.8-64 64v0c0 35.2 28.8 64 64 64h256c35.2 0 64-28.8 64-64v0zM576 576c0-35.2-28.8-64-64-64h-128c-35.2 0-64 28.8-64 64v0c0 35.2 28.8 64 64 64h128c35.2 0 64-28.8 64-64v0z" glyph-name="blogger2" unicode="&#xe91f;"/><glyph d="M576.032 512l-.002-234.184c0-59.418-.77-93.656 5.53-110.5 6.25-16.754 21.918-34.146 38.99-44.202 22.684-13.588 48.542-20.376 77.708-20.376 51.854 0 82.478 6.848 133.742 40.54v-153.944c-43.7-20.552-81.866-32.594-117.324-40.922-35.5-8.242-73.86-12.406-115.064-12.406-46.828 0-74.456 5.886-110.41 17.656-35.958 11.868-66.66 28.806-92.02 50.54-25.45 21.922-43.022 45.208-52.848 69.832-9.826 24.636-14.716 60.414-14.716 107.244v359.1h-137.426v145.006c40.208 13.042 85.164 31.788 113.78 56.152 28.754 24.45 51.766 53.706 69.106 87.944 17.392 34.146 29.348 77.712 35.872 130.516h165.084l-.002-255.996h255.968v-192h-255.968z" glyph-name="tumblr" unicode="&#xe920;"/><glyph d="M928 960h-832c-52.8 0-96-43.2-96-96v-832c0-52.8 43.2-96 96-96h832c52.8 0 96 43.2 96 96v832c0 52.8-43.2 96-96 96zM731.8 135.4c-30.2-14.2-57.6-24.2-82-30-24.4-5.6-51-8.6-79.4-8.6-32.4 0-51.4 4-76.2 12.2s-46 19.8-63.6 34.8c-17.6 15.2-29.6 31.2-36.4 48.2s-10.2 41.6-10.2 74v247.8h-96v100c27.8 9 60 22 79.6 38.8 19.8 16.8 35.8 37 47.6 60.6 12 23.6 20.2 53.6 24.8 90h100.4v-163.2h163.6v-126.2h-163.4v-181.2c0-41-.6-64.6 3.8-76.2s15.2-23.6 27-30.4c15.6-9.4 33.6-14 53.6-14 35.8 0 71.4 11.6 106.8 34.8v-111.4z" glyph-name="tumblr2" unicode="&#xe921;"/><glyph d="M568.2 371v0c112.6 197.6 298.6 520 349.6 589-22.4-15-56.8-22.6-88.4-29.8l-47.8 29.8c-38.4-71.6-180-303-270.2-451.2-91.4 151.4-199.6 326.2-270.2 451.2-56-12-79.2-12.6-135 0v0 0c0 0 0 0 0 0v0c110.8-166.8 288.2-484.6 348.6-589v0l-8.2-435 64.8 29.8v.8l64.8-30.6-8 435z" glyph-name="yahoo" unicode="&#xe922;"/><glyph d="M513.2 890.4c-181 0-352 23.8-513.2 69.6 0-361.8 0-933.2 0-1024 161.4 45.8 332.4 69.6 513.2 69.6 178.8 0 349.4-23.2 510.8-69.6 0 348.4 0 649.8 0 1024-161.4-46.4-331.8-69.6-510.8-69.6zM796.8 803l-6.2-9.8c-5.8-9.2-11-17-18.2-28-9.6-14.4-27.6-43-49.2-79.8-6-10.2-13.4-22.4-21-35.6-14.6-24.6-31-52.4-44-74.4-5.4-9.4-10.8-19-16.4-28.6-14.4-25-29.2-50.8-43.4-75.6-14.6-25.8-29-51.2-43.4-76.4v-25.4c0-35.2.8-73.6 2-107.8.6-15.6 1.2-43.4 2-72.8.8-35 1.6-71.2 2.6-89.6l.2-5.6v-.6l-6 1.6c-2.4.6-4.6 1.2-7 1.8-7.2 1.6-15 2.8-22.6 3.6-4.6.4-9.4.6-14.2.6 0 0 0 0 0 0s0 0 0 0c-4.8 0-9.6-.2-14.2-.6-7.6-.8-15.4-2-22.6-3.6-2.4-.6-4.8-1.2-7-1.8l-6-1.6v.6l.2 5.6c.8 18.2 1.8 54.6 2.6 89.6.6 29.4 1.4 57.2 2 72.8 1.4 34.4 2 72.6 2 107.8v25.4c-14.4 25.4-28.8 50.6-43.4 76.4-14.2 25-29 50.6-43.2 75.6-5.6 9.6-11 19.2-16.4 28.6-12.8 22.2-29.4 50-44 74.4-7.8 13-15.2 25.4-21 35.6-21.6 36.8-39.6 65.2-49.2 79.8-7.2 11-12.4 18.8-18.2 28l-6.2 9.8 11.2-3.2c14.2-4 28.8-6 44.4-6s30.6 2 44.6 6l3.4 1 1.8-3c27.6-49.8 101.8-171.8 146.2-244.8 15.2-25.2 27.4-45 33.4-55.2 0 0 0 0 0 .2 0 0 0 0 0-.2 6 10 18.2 30 33.4 55.2 44.4 72.8 118.6 194.8 146.2 244.8l1.8 3 3.4-1c14-4 29-6 44.6-6s30.2 2 44.4 6l10.6 3.2z" glyph-name="yahoo2" unicode="&#xe923;"/><glyph d="M928 960h-832c-52.8 0-96-43.2-96-96v-832c0-52.8 43.2-96 96-96h832c52.8 0 96 43.2 96 96v832c0 52.8-43.2 96-96 96zM176 256h-32l-16 96 16 96h32l16-96-16-96zM304 256h-32l-16 128 16 128h32l16-128-16-128zM432 256h-32l-16 192 16 192h32l16-192-16-192zM825.2 256c-2 0-301.2.2-301.4.2-6.4.6-11.6 6.2-11.8 12.8v345.2c0 6.4 2.2 9.6 10.4 12.8 21.2 8.2 45 13 69.6 13 100.2 0 182.4-76.8 191.2-175 13 5.4 27.2 8.4 42 8.4 60 0 108.8-48.8 108.8-108.8s-48.8-108.6-108.8-108.6z" glyph-name="soundcloud2" unicode="&#xe924;"/><glyph d="M256 320c0 35.346 28.654 64 64 64s64-28.654 64-64c0-35.346-28.654-64-64-64s-64 28.654-64 64zM640 320c0 35.346 28.654 64 64 64s64-28.654 64-64c0-35.346-28.654-64-64-64s-64 28.654-64 64zM643.112 183.222c16.482 12.986 40.376 10.154 53.364-6.332s10.152-40.378-6.334-53.366c-45.896-36.158-115.822-59.524-178.142-59.524-62.322 0-132.248 23.366-178.144 59.522-16.486 12.99-19.32 36.882-6.332 53.368 12.99 16.482 36.882 19.318 53.366 6.332 26.422-20.818 78.722-43.222 131.11-43.222s104.688 22.404 131.112 43.222zM1024 448c0 70.692-57.308 128-128 128-48.116 0-89.992-26.57-111.852-65.82-65.792 35.994-145.952 59.246-233.28 64.608l76.382 171.526 146.194-42.2c13.152-37.342 48.718-64.114 90.556-64.114 53.02 0 96 42.98 96 96s-42.98 96-96 96c-36.56 0-68.342-20.442-84.554-50.514l-162.906 47.024c-18.224 5.258-37.538-3.722-45.252-21.052l-103.77-233.026c-85.138-5.996-163.262-29.022-227.636-64.236-21.864 39.25-63.766 65.804-111.882 65.804-70.692 0-128-57.308-128-128 0-52.312 31.402-97.254 76.372-117.102-8.07-24.028-12.372-49.104-12.372-74.898 0-176.73 200.576-320 448-320 247.422 0 448 143.27 448 320 0 25.792-4.3 50.862-12.368 74.886 44.97 19.85 76.368 64.802 76.368 117.114zM864 772c19.882 0 36-16.118 36-36s-16.118-36-36-36-36 16.118-36 36 16.118 36 36 36zM64 448c0 35.29 28.71 64 64 64 25.508 0 47.572-15.004 57.846-36.646-33.448-25.366-61.166-54.626-81.666-86.738-23.524 9.47-40.18 32.512-40.18 59.384zM512 12c-205.45 0-372 109.242-372 244s166.55 244 372 244c205.45 0 372-109.242 372-244s-166.55-244-372-244zM919.82 388.616c-20.5 32.112-48.218 61.372-81.666 86.738 10.276 21.642 32.338 36.646 57.846 36.646 35.29 0 64-28.71 64-64 0-26.872-16.656-49.914-40.18-59.384z" glyph-name="reddit" unicode="&#xe925;"/><glyph d="M0 960v-1024h1024v1024h-1024zM544 376v-216h-64v216l-175 328h72.6l134.4-252 134.4 252h72.6l-175-328z" glyph-name="hackernews" unicode="&#xe926;"/><glyph d="M928 960h-832c-52.8 0-96-43.2-96-96v-832c0-52.8 43.2-96 96-96h832c52.8 0 96 43.2 96 96v832c0 52.8-43.2 96-96 96zM384 128h-128v448h128v-448zM320 640c-35.4 0-64 28.6-64 64s28.6 64 64 64c35.4 0 64-28.6 64-64s-28.6-64-64-64zM832 128h-128v256c0 35.4-28.6 64-64 64s-64-28.6-64-64v-256h-128v448h128v-79.4c26.4 36.2 66.8 79.4 112 79.4 79.6 0 144-71.6 144-160v-288z" glyph-name="linkedin" unicode="&#xe927;"/><glyph d="M451.6 193.8l-37.6 102c0 0-61-68-152.4-68-81 0-138.4 70.4-138.4 183 0 144.2 72.8 195.8 144.2 195.8 103.2 0 136-66.8 164.2-152.4l37.6-117.2c37.6-113.8 108-205.2 310.8-205.2 145.4 0 244 44.6 244 161.8 0 95-54 144.2-154.8 167.8l-75 16.4c-51.6 11.8-66.8 32.8-66.8 68 0 39.8 31.6 63.4 83.2 63.4 56.4 0 86.8-21.2 91.4-71.6l117.2 14c-9.4 105.6-82.2 149-201.8 149-105.6 0-208.8-39.8-208.8-167.8 0-79.8 38.8-130.2 136-153.6l79.8-18.8c59.8-14 79.8-38.8 79.8-72.8 0-43.4-42.2-61-122-61-118.4 0-167.8 62.2-195.8 147.8l-38.8 117.2c-49 152.6-127.6 208.8-283.6 208.8-172.4 0-264-109-264-294.4 0-178.2 91.4-274.4 255.8-274.4 132.4 0 195.8 62.2 195.8 62.2v0z" glyph-name="lastfm" unicode="&#xe928;"/><glyph d="M928 960h-832c-52.8 0-96-43.2-96-96v-832c0-52.8 43.2-96 96-96h832c52.8 0 96 43.2 96 96v832c0 52.8-43.2 96-96 96zM746.6 199.2c-177.6 0-239.2 80-272 179.6l-32.8 102.6c-24.6 75-53.4 133.4-143.6 133.4-62.6 0-126.2-45.2-126.2-171.4 0-98.6 50.2-160.2 121.2-160.2 80 0 133.4 59.6 133.4 59.6l32.8-89.2c0 0-55.4-54.4-171.4-54.4-144 0-224 84-224 240 0 162.2 80 257.6 231 257.6 136.6 0 205.2-49.2 248.4-182.6l33.8-102.6c24.6-75 67.8-129.4 171.4-129.4 69.8 0 106.8 15.4 106.8 53.4 0 29.8-17.4 51.4-69.8 63.6l-69.8 16.4c-85.2 20.6-119 64.6-119 134.4 0 111.8 90.4 146.8 182.6 146.8 104.6 0 168.4-38 176.6-130.4l-102.6-12.4c-4.2 44.2-30.8 62.6-80 62.6-45.2 0-72.8-20.6-72.8-55.4 0-30.8 13.4-49.2 58.4-59.6l65.6-14.4c88.2-20.6 135.4-63.6 135.4-146.8 0-102.2-86.2-141.2-213.4-141.2z" glyph-name="lastfm2" unicode="&#xe929;"/><glyph d="M0 960v-1024h1024v1024h-1024zM512 0v448h-448v448h448v-448h448v-448h-448z" glyph-name="delicious" unicode="&#xe92a;"/><glyph d="M512 640c-35.2 0-64-28.8-64-64v-256c0-105.8-86.2-192-192-192s-192 86.2-192 192v128h128v-128c0-35.2 28.8-64 64-64s64 28.8 64 64v256c0 105.8 86.2 192 192 192s192-86.2 192-178v-62l-82-24-46 24v62c0 21.2-28.8 50-64 50zM960 320c0-105.8-86.2-192-192-192s-192 86.2-192 206v124l46-24 82 24v-124c0-49.2 28.8-78 64-78s64 28.8 64 64v128h128v-128z" glyph-name="stumbleupon" unicode="&#xe92b;"/><glyph d="M852 960h-680c-94.6 0-172-77.4-172-172v-680c0-94.6 77.4-172 172-172h680c94.6 0 172 77.4 172 172v680c0 94.6-77.4 172-172 172zM512 640c-35.29 0-64-28.71-64-64v-256c0-105.872-86.13-192-192-192s-192 86.128-192 192v128h128v-128c0-35.29 28.71-64 64-64s64 28.71 64 64v256c0 105.87 86.13 192 192 192s192-86.13 192-178v-62l-82-24-46 24v62c0 21.29-28.71 50-64 50zM960 320c0-105.872-86.13-192-192-192s-192 86.128-192 206v124l46-24 82 24v-124c0-49.29 28.71-78 64-78s64 28.71 64 64v128h128v-128z" glyph-name="stumbleupon2" unicode="&#xe92c;"/><glyph d="M1024 320v-384h-1024v384h128v-256h768v256zM192 256h640v-128h-640zM207.152 394.534l27.698 124.964 624.832-138.496-27.698-124.964zM279.658 651.442l54.092 116.006 580.032-270.464-54.092-116.006zM991.722 598.524l-77.922-101.55-507.746 389.608 56.336 73.418h58.244z" glyph-name="stackoverflow" unicode="&#xe92d;"/><glyph d="M512 891.6c-245 0-443.6-198.6-443.6-443.6 0-188 117-348.4 282-413-3.8 35-7.4 89 1.6 127.2 8 34.6 52 220.4 52 220.4s-13.2 26.6-13.2 65.8c0 61.6 35.8 107.8 80.2 107.8 37.8 0 56.2-28.4 56.2-62.4 0-38-24.2-95-36.8-147.6-10.6-44.2 22-80.2 65.6-80.2 78.8 0 139.4 83.2 139.4 203.2 0 106.2-76.4 180.4-185.2 180.4-126.2 0-200.2-94.6-200.2-192.6 0-38.2 14.6-79 33-101.2 3.6-4.4 4.2-8.2 3-12.8-3.4-14-10.8-44.2-12.4-50.4-2-8.2-6.4-9.8-14.8-6-55.4 25.8-90 106.8-90 171.8 0 140 101.6 268.4 293 268.4 153.8 0 273.4-109.6 273.4-256.2 0-152.8-96.4-276-230.2-276-45 0-87.2 23.4-101.6 51 0 0-22.2-84.6-27.6-105.4-10-38.6-37-86.8-55.2-116.2 41.6-12.8 85.6-19.8 131.4-19.8 245 0 443.6 198.6 443.6 443.6 0 245.2-198.6 443.8-443.6 443.8z" glyph-name="pinterest" unicode="&#xe92e;"/><glyph d="M512 960c-282.4 0-512-229.6-512-512s229.6-512 512-512 512 229.6 512 512-229.6 512-512 512zM512 4.4c-45.8 0-89.8 7-131.4 19.8 18 29.4 45.2 77.8 55.2 116.2 5.4 20.8 27.6 105.4 27.6 105.4 14.4-27.6 56.8-51 101.6-51 133.8 0 230.2 123 230.2 276 0 146.6-119.6 256.2-273.4 256.2-191.4 0-293-128.6-293-268.4 0-65 34.6-146 90-171.8 8.4-4 12.8-2.2 14.8 6 1.4 6.2 9 36.2 12.4 50.4 1 4.4.6 8.4-3 12.8-18.4 22.2-33 63.2-33 101.2 0 97.8 74 192.6 200.2 192.6 109 0 185.2-74.2 185.2-180.4 0-120-60.6-203.2-139.4-203.2-43.6 0-76.2 36-65.6 80.2 12.6 52.8 36.8 109.6 36.8 147.6 0 34-18.2 62.4-56.2 62.4-44.6 0-80.2-46-80.2-107.8 0-39.2 13.2-65.8 13.2-65.8s-44-185.8-52-220.4c-9-38.4-5.4-92.2-1.6-127.2-165 64.4-282 224.8-282 412.8 0 245 198.6 443.6 443.6 443.6s443.6-198.6 443.6-443.6c0-245-198.6-443.6-443.6-443.6z" glyph-name="pinterest2" unicode="&#xe92f;"/><glyph d="M928 960h-832c-52.8 0-96-43.2-96-96v-832c0-52.8 43.2-96 96-96h832c52.8 0 96 43.2 96 96v832c0 52.8-43.2 96-96 96zM312.6 294h-110.6c-6.6 0-11.6 3-14.4 7.6-3 4.8-3 10.8 0 17l117.6 207.6c.2.2.2.4 0 .6l-74.8 129.6c-3 6.2-3.6 12.2-.6 17 2.8 4.6 8.4 7 15.2 7h110.8c17 0 25.4-11 30.8-20.8 0 0 75.6-132 76.2-132.8-4.4-8-119.6-211.4-119.6-211.4-6-10.4-14-21.4-30.6-21.4zM836.4 807.8l-245.2-433.6c-.2-.2-.2-.6 0-.8l156.2-285.2c3-6.2 3.2-12.4.2-17.2-2.8-4.6-8-7-14.8-7h-110.6c-17 0-25.4 11.2-31 21 0 0-157 288-157.4 288.8 7.8 13.8 246.4 437 246.4 437 6 10.6 13.2 21 29.6 21h112.2c6.6 0 12-2.6 14.8-7 2.8-4.6 2.8-10.8-.4-17z" glyph-name="xing" unicode="&#xe930;"/><glyph d="M155.6 757.8c-8.8 0-16.4-3.2-20.2-9.2-3.8-6.4-3.2-14.4.8-22.6l99.8-172.8c.2-.4.2-.6 0-.8l-156.8-277.2c-4-8.2-3.8-16.4 0-22.6 3.8-6 10.4-10 19.2-10h147.6c22 0 32.8 15 40.2 28.6 0 0 153.4 271.4 159.4 282-.6 1-101.6 177-101.6 177-7.4 13-18.4 27.6-41.2 27.6h-147.2zM776 960c-22 0-31.6-13.8-39.6-28.2 0 0-318.2-564.2-328.6-582.8.6-1 209.8-385 209.8-385 7.4-13 18.6-28.2 41.2-28.2h147.6c8.8 0 15.8 3.4 19.6 9.4 4 6.4 3.8 14.6-.4 22.8l-208 380.6c-.2.4-.2.6 0 1l327 578.2c4 8.2 4.2 16.4.4 22.8-3.8 6-10.8 9.4-19.6 9.4h-149.4z" glyph-name="xing2" unicode="&#xe931;"/><glyph d="M367.562 960c-243.358 0-367.562-140.162-367.562-401.856v0-549.034l238.39 238.628v278.896c0 108.416 28.73 177.406 125.118 192.894v0c33.672 6.584 103.75 4.278 148.306 4.278v0-165.596c0-1.51.208-4.206.594-5.586v0c1.87-6.704 7.93-11.616 15.116-11.63v0c4.062-.008 7.868 2.104 11.79 5.97v0l413.122 412.974-584.874.062zM785.61 648.254v-278.89c0-108.414-28.736-177.414-125.116-192.894v0c-33.672-6.582-103.756-4.278-148.312-4.278v0 165.594c0 1.5-.206 4.204-.594 5.582v0c-1.864 6.712-7.922 11.622-15.112 11.63v0c-4.064.008-7.866-2.112-11.79-5.966v0l-413.124-412.966 584.874-.066c243.354 0 367.564 140.168 367.564 401.852v0 549.028l-238.39-238.626z" glyph-name="flattr" unicode="&#xe932;"/><glyph d="M851.564 869.91c-12.06 16.404-31.204 26.09-51.564 26.09h-608c-35.346 0-64-28.654-64-64v-768c0-25.884 15.592-49.222 39.508-59.128 7.918-3.28 16.234-4.874 24.478-4.874 16.656 0 33.026 6.504 45.268 18.748l237.256 237.254h165.49c27.992 0 52.736 18.192 61.086 44.91l160 512c6.074 19.432 2.538 40.596-9.522 57zM672.948 640h-224.948c-35.346 0-64-28.654-64-64s28.654-64 64-64h184.948l-40-128h-144.948c-16.974 0-33.252-6.742-45.254-18.746l-146.746-146.744v549.49h456.948l-40-128z" glyph-name="foursquare" unicode="&#xe933;"/><glyph d="M608.876 306.532c-17.282-17.426-2.668-49.128-2.668-49.128l130.09-217.218c0 0 21.36-28.64 39.864-28.64 18.59 0 36.954 15.27 36.954 15.27l102.844 147.008c0 0 10.36 18.546 10.598 34.792.372 23.106-34.454 29.434-34.454 29.434l-243.488 78.192c-.002-.004-23.858 6.328-39.74-9.71zM596.532 416.016c12.46-21.128 46.828-14.972 46.828-14.972l242.938 71.006c0 0 33.106 13.466 37.832 31.418 4.64 17.954-5.46 39.622-5.46 39.622l-116.098 136.752c0 0-10.062 17.292-30.938 19.032-23.016 1.958-37.18-25.898-37.18-25.898l-137.27-216.01c0-.004-12.134-21.516-.652-40.95zM481.754 500.232c28.608 7.044 33.148 48.604 33.148 48.604l-1.944 345.87c0 0-4.314 42.666-23.486 54.232-30.07 18.242-38.982 8.718-47.596 7.444l-201.696-74.944c0 0-19.754-6.536-30.042-23.018-14.69-23.352 14.928-57.544 14.928-57.544l209.644-285.756c0 0 20.69-21.396 47.044-14.888zM431.944 360.262c.722 26.676-32.03 42.7-32.03 42.7l-216.796 109.524c0 0-32.126 13.246-47.722 4.016-11.95-7.06-22.536-19.84-23.572-31.134l-14.12-173.812c0 0-2.116-30.114 5.69-43.82 11.054-19.442 47.428-5.902 47.428-5.902l253.096 55.942c9.832 6.61 27.074 7.204 28.026 42.486zM494.88 266.458c-21.726 11.156-47.724-11.95-47.724-11.95l-169.468-186.566c0 0-21.144-28.528-15.768-46.05 5.066-16.418 13.454-24.578 25.318-30.328l170.192-53.726c0 0 20.634-4.286 36.258.242 22.18 6.43 18.094 41.152 18.094 41.152l3.848 252.602c-.002-.002-.868 24.334-20.75 34.624z" glyph-name="yelp" unicode="&#xe934;"/><glyph d="M512 960c-176.732 0-320-143.268-320-320 0-320 320-704 320-704s320 384 320 704c0 176.732-143.27 320-320 320zM512 448c-106.04 0-192 85.96-192 192s85.96 192 192 192 192-85.96 192-192-85.96-192-192-192z" glyph-name="location" unicode="&#xe935;"/><glyph d="M512 768c-54.932 0-107.988-8.662-157.694-25.742-46.712-16.054-88.306-38.744-123.628-67.444-66.214-53.798-102.678-122.984-102.678-194.814 0-40.298 11.188-79.378 33.252-116.152 22.752-37.92 56.982-72.586 98.988-100.252 30.356-19.992 50.78-51.948 56.176-87.894 1.8-11.984 2.928-24.088 3.37-36.124 7.47 6.194 14.75 12.846 21.88 19.976 24.154 24.152 56.78 37.49 90.502 37.49 5.368 0 10.762-.336 16.156-1.024 20.974-2.666 42.398-4.02 63.676-4.02 54.934 0 107.988 8.66 157.694 25.742 46.712 16.054 88.306 38.744 123.628 67.444 66.214 53.796 102.678 122.984 102.678 194.814s-36.464 141.016-102.678 194.814c-35.322 28.698-76.916 51.39-123.628 67.444-49.706 17.08-102.76 25.742-157.694 25.742zM512 896v0c282.77 0 512-186.25 512-416 0-229.752-229.23-416-512-416-27.156 0-53.81 1.734-79.824 5.044-109.978-109.978-241.25-129.7-368.176-132.596v26.916c68.536 33.578 128 94.74 128 164.636 0 9.754-.758 19.33-2.164 28.696-115.796 76.264-189.836 192.754-189.836 323.304 0 229.75 229.23 416 512 416z" glyph-name="bubble2" unicode="&#xe936;"/><glyph d="M512 960c-176.732 0-320-143.268-320-320 0-320 320-704 320-704s320 384 320 704c0 176.732-143.27 320-320 320zM512 444c-108.248 0-196 87.752-196 196s87.752 196 196 196 196-87.752 196-196-87.752-196-196-196zM388 640c0 68.483 55.517 124 124 124s124-55.517 124-124c0-68.483-55.517-124-124-124s-124 55.517-124 124z" glyph-name="location2" unicode="&#xe937;"/><glyph d="M512 960c-282.77 0-512-229.23-512-512s229.23-512 512-512 512 229.23 512 512-229.23 512-512 512zM658.744 210.744l-210.744 210.746v282.51h128v-229.49l173.256-173.254-90.512-90.512z" glyph-name="clock2" unicode="&#xe938;"/><glyph d="M704 320c-64-64-64-128-128-128s-128 64-192 128-128 128-128 192 64 64 128 128-128 256-192 256-192-192-192-192c0-128 131.5-387.5 256-512s384-256 512-256c0 0 192 128 192 192s-192 256-256 192z" glyph-name="phone" unicode="&#xe939;"/><glyph d="M768 960h-576c-35.2 0-64-28.798-64-64v-896c0-35.2 28.798-64 64-64h576c35.2 0 64 28.8 64 64v896c0 35.202-28.8 64-64 64zM480-17.782c-27.492 0-49.782 22.29-49.782 49.782s22.29 49.782 49.782 49.782 49.782-22.29 49.782-49.782-22.29-49.782-49.782-49.782zM768 128h-576v704h576v-704z" glyph-name="mobile2" unicode="&#xe93a;"/><glyph d="M736 960h-448c-52.8 0-96-43.2-96-96v-832c0-52.8 43.2-96 96-96h448c52.8 0 96 43.2 96 96v832c0 52.8-43.2 96-96 96zM384 912h256v-32h-256v32zM512 0c-35.346 0-64 28.654-64 64s28.654 64 64 64 64-28.654 64-64-28.654-64-64-64zM768 192h-512v640h512v-640z" glyph-name="mobile" unicode="&#xe93b;"/><glyph d="M1018.17 668.11l-286.058 286.058c-9.334 9.334-21.644 7.234-27.356-4.666l-38.354-79.904 267.198-267.198 79.904 38.354c11.9 5.712 14 18.022 4.666 27.356zM615.384 824.616l-263.384-21.95c-17.5-2.166-32.08-5.898-37.09-28.752-.006-.024-.012-.042-.018-.066-71.422-343.07-314.892-677.848-314.892-677.848l57.374-57.374 271.986 271.99c-5.996 12.53-9.36 26.564-9.36 41.384 0 53.02 42.98 96 96 96s96-42.98 96-96-42.98-96-96-96c-14.82 0-28.852 3.364-41.384 9.36l-271.988-271.986 57.372-57.374c0 0 334.778 243.47 677.848 314.892.024.006.042.012.066.018 22.854 5.01 26.586 19.59 28.752 37.09l21.95 263.384-273.232 273.232z" glyph-name="pen" unicode="&#xe93c;"/><glyph d="M384 320l128 64 448 448-64 64-448-448-64-128zM289.3 92.902c-31.632 66.728-65.666 100.762-132.396 132.394l99.096 272.792 128 77.912 384 384h-192l-384-384-192-640 640 192 384 384v192l-384-384-77.912-128z" glyph-name="pencil2" unicode="&#xe93d;"/><glyph d="M1024 369.556l-512 397.426-512-397.428v162.038l512 397.426 512-397.428zM896 384v-384h-256v256h-256v-256h-256v384l384 288z" glyph-name="home" unicode="&#xe93e;"/><glyph d="M512 928l-512-512 96-96 96 96v-416h256v192h128v-192h256v416l96-96 96 96-512 512zM512 512c-35.346 0-64 28.654-64 64s28.654 64 64 64c35.346 0 64-28.654 64-64s-28.654-64-64-64z" glyph-name="home2" unicode="&#xe93f;"/><glyph d="M1024 352l-192 192v288h-128v-160l-192 192-512-512v-32h128v-320h320v192h128v-192h320v320h128z" glyph-name="home3" unicode="&#xe940;"/><glyph d="M864 960c88.364 0 160-71.634 160-160 0-36.02-11.91-69.258-32-96l-64-64-224 224 64 64c26.742 20.09 59.978 32 96 32zM64 224l-64-288 288 64 592 592-224 224-592-592zM715.578 596.422l-448-448-55.156 55.156 448 448 55.156-55.156z" glyph-name="pencil" unicode="&#xe941;"/><glyph d="M960 960h64v-736c0-88.366-100.29-160-224-160s-224 71.634-224 160c0 88.368 100.29 160 224 160 62.684 0 119.342-18.4 160-48.04v368.04l-512-113.778v-494.222c0-88.366-100.288-160-224-160s-224 71.634-224 160c0 88.368 100.288 160 224 160 62.684 0 119.342-18.4 160-48.04v624.04l576 128z" glyph-name="music" unicode="&#xe942;"/><glyph d="M928 832h-832c-52.8 0-96-43.2-96-96v-640c0-52.8 43.2-96 96-96h832c52.8 0 96 43.2 96 96v640c0 52.8-43.2 96-96 96zM398.74 409.628l-270.74-210.892v501.642l270.74-290.75zM176.38 704h671.24l-335.62-252-335.62 252zM409.288 398.302l102.712-110.302 102.71 110.302 210.554-270.302h-626.528l210.552 270.302zM625.26 409.628l270.74 290.75v-501.642l-270.74 210.892z" glyph-name="envelop" unicode="&#xe943;"/><glyph d="M640 896c247.424 0 448-200.576 448-448s-200.576-448-448-448v96c94.024 0 182.418 36.614 248.902 103.098s103.098 154.878 103.098 248.902c0 94.022-36.614 182.418-103.098 248.902s-154.878 103.098-248.902 103.098c-94.022 0-182.418-36.614-248.902-103.098-51.14-51.138-84.582-115.246-97.306-184.902h186.208l-224-256-224 256h164.57c31.06 217.102 217.738 384 443.43 384zM832 512v-128h-256v320h128v-192z" glyph-name="history" horiz-adv-x="1088" unicode="&#xe944;"/><glyph d="M658.744 210.744l-210.744 210.746v282.51h128v-229.49l173.256-173.254zM512 960c-282.77 0-512-229.23-512-512s229.23-512 512-512 512 229.23 512 512-229.23 512-512 512zM512 64c-212.078 0-384 171.922-384 384s171.922 384 384 384c212.078 0 384-171.922 384-384s-171.922-384-384-384z" glyph-name="clock" unicode="&#xe945;"/><glyph d="M512 896c282.77 0 512-186.25 512-416 0-229.752-229.23-416-512-416-27.156 0-53.81 1.734-79.824 5.044-109.978-109.978-241.25-129.7-368.176-132.596v26.916c68.536 33.578 128 94.74 128 164.636 0 9.754-.758 19.33-2.164 28.696-115.796 76.264-189.836 192.754-189.836 323.304 0 229.75 229.23 416 512 416z" glyph-name="bubble" unicode="&#xe946;"/><glyph d="M853.342 960h-682.656c-93.874 0-170.686-76.81-170.686-170.69v-682.622c0-93.938 76.812-170.688 170.686-170.688h682.656c93.876 0 170.658 76.75 170.658 170.69v682.62c0 93.88-76.782 170.69-170.658 170.69zM182.628 73.374l-77.256 77.254 256 256 29.256-29.254-208-304zM153.372 761.372l29.256 29.256 329.372-265.374 329.374 265.374 29.254-29.256-358.628-422.626-358.628 422.626zM841.374 73.374l-208 304 29.254 29.254 256-256-77.254-77.254z" glyph-name="mail3" unicode="&#xe947;"/><glyph d="M925.6 74.8c-112.2-82.8-274.6-126.8-414.6-126.8-196.2 0-372.8 72.4-506.4 193.2-10.4 9.4-1.2 22.4 11.4 15 144.2-84 322.6-134.4 506.8-134.4 124.2 0 260.8 25.8 386.6 79.2 18.8 8 34.8-12.6 16.2-26.2zM972.2 128c-14.4 18.4-94.8 8.8-131 4.4-11-1.2-12.6 8.2-2.8 15.2 64.2 45 169.4 32 181.6 17 12.4-15.2-3.2-120.6-63.4-171-9.2-7.8-18-3.6-14 6.6 13.8 33.8 44 109.4 29.6 127.8zM707.4 202.4l.2-.2c24.8 21.8 69.4 60.8 94.6 81.8 10 8 8.2 21.4.4 32.6-22.6 31.2-46.6 56.6-46.6 114.2v192c0 81.4 5.6 156-54.2 212-47.2 45.2-125.6 61.2-185.6 61.2-117.2 0-248-43.8-275.4-188.6-3-15.4 8.4-23.6 18.4-25.8l119.4-13c11.2.6 19.2 11.6 21.4 22.8 10.2 49.8 52 74 99 74 25.4 0 54.2-9.2 69.2-32 17.2-25.4 15-60 15-89.4v-16c-71.4-8-164.8-13.2-231.6-42.6-77.2-33.4-131.4-101.4-131.4-201.4 0-128 80.6-192 184.4-192 87.6 0 135.4 20.6 203 89.8 22.4-32.4 29.6-48.2 70.6-82.2 9.4-5 21-4.6 29.2 2.8zM583.2 502.8c0-48 1.2-88-23-130.6-19.6-34.8-50.6-56-85.2-56-47.2 0-74.8 36-74.8 89.2 0 105 94.2 124 183.2 124v-26.6z" glyph-name="amazon" unicode="&#xe948;"/><glyph d="M512 960c-282.8 0-512-229.2-512-512s229.2-512 512-512 512 229.2 512 512-229.2 512-512 512zM519.6 64c-212.2 0-384 171.8-384 384s171.8 384 384 384c103.6 0 190.4-37.8 257.2-100.4l-104.2-100.4c-28.6 27.4-78.4 59.2-153 59.2-131.2 0-238-108.6-238-242.4s107-242.4 238-242.4c152 0 209 109.2 217.8 165.6h-217.8v131.6h362.6c3.2-19.2 6-38.4 6-63.6.2-219.4-146.8-375.2-368.6-375.2z" glyph-name="google3" unicode="&#xe949;"/><glyph d="M511.8 960c-244.2 0-442.2-198-442.2-442.2 0-231.4 210.8-419 442.2-419v-162.8c268.6 136.2 442.6 355.6 442.6 581.8 0 244.2-198.4 442.2-442.6 442.2zM448 448c0-53-28.6-96-64-96v96h-128v192h192v-192zM768 448c0-53-28.6-96-64-96v96h-128v192h192v-192z" glyph-name="hangouts" unicode="&#xe94a;"/><glyph d="M512 960c-281.6 0-512-230.4-512-512s230.4-512 512-512 512 230.4 512 512-227.8 512-512 512zM747.6 220.2c-10.2-15.4-28.2-20.4-43.6-10.2-120.4 74.2-271.4 89.6-450.6 48.6-18-5.2-33.2 7.6-38.4 23-5.2 18 7.6 33.2 23 38.4 194.6 43.6 363.6 25.6 496.6-56.4 18-7.6 20.6-28 13-43.4zM809 361c-12.8-18-35.8-25.6-53.8-12.8-138.2 84.4-348.2 110-509.4 58.8-20.4-5.2-43.6 5.2-48.6 25.6-5.2 20.4 5.2 43.6 25.6 48.6 186.8 56.4 417.2 28.2 576-69.2 15.2-7.6 23-33.2 10.2-51zM814 504.4c-163.8 97.2-437.8 107.6-594 58.8-25.6-7.6-51.2 7.6-58.8 30.8-7.6 25.6 7.6 51.2 30.8 58.8 181.8 53.8 481.2 43.6 670.8-69.2 23-12.8 30.8-43.6 18-66.6-13-17.8-43.6-25.4-66.8-12.6z" glyph-name="spotify" unicode="&#xe94b;"/><glyph d="M512 960c-282.8 0-512-229.2-512-512s229.2-512 512-512 512 229.2 512 512-229.2 512-512 512zM763.6 609l-84-395.8c-5.8-28.2-22.8-34.8-46.4-21.8l-128 94.6-61.4-59.8c-7.2-7-12.8-12.8-25.6-12.8-16.6 0-13.8 6.2-19.4 22l-43.6 143.2-126.6 39.4c-27.4 8.4-27.6 27.2 6.2 40.6l493.2 190.4c22.4 10.2 44.2-5.4 35.6-40z" glyph-name="telegram" unicode="&#xe94c;"/><glyph d="M960.8 451c-26.4-6-51.8-8.8-74.8-8.8-129.2 0-228.6 90.2-228.6 247.2 0 77 29.8 116.8 71.8 116.8 40 0 66.6-35.8 66.6-108.6 0-41.4-11-86.8-19.2-113.6 0 0 39.8-69.4 148.6-48.2 23.2 51.4 35.6 117.8 35.6 176 0 156.8-80 248.2-226.6 248.2-150.8 0-239-115.8-239-268.6 0-151.4 70.8-281.2 187.4-340.4-49-98.2-111.4-184.6-176.6-249.8-118 142.8-224.8 333.2-268.6 705h-174.2c80.6-619.2 320.4-816.4 384-854.2 35.8-21.6 66.8-20.6 99.6-2 51.6 29.2 206.2 184 292 365 36 0 79.2 4.2 122.2 14v122z" glyph-name="vine" unicode="&#xe94d;"/><glyph d="M425.2 949.4c-241.2-40.6-425.2-250.4-425.2-503.2 0-125.6 45.6-240.6 120.8-329.6 178.6 86.4 303.6 282 304.4 509.8v323zM598.8 949.4c241.2-40.6 425.2-250.4 425.2-503.2 0-125.6-45.6-240.6-120.8-329.6-178.6 86.4-303.6 282-304.4 509.8v323zM510.2 317.4c-31.8-131.6-126.8-244-245-318.8 72.8-39.8 156.2-62.6 245-62.6s172.2 22.8 245 62.6c-118.2 74.8-213.2 187.2-245 318.8z" glyph-name="renren" unicode="&#xe94e;"/><glyph d="M430.2 62c-169.6-16.8-316 60-327 171.2-11 111.4 117.6 215 287 231.8 169.6 16.8 316-60 326.8-171.2 11.2-111.4-117.4-215.2-286.8-231.8zM769.2 431.4c-14.4 4.4-24.4 7.2-16.8 26.2 16.4 41.2 18 76.6.2 102-33.2 47.4-124.2 45-228.4 1.2 0 0-32.8-14.2-24.4 11.6 16 51.6 13.6 94.6-11.4 119.6-56.6 56.6-207-2.2-336-131.2-96.4-96.2-152.4-198.8-152.4-287.4 0-169.2 217.2-272.2 429.6-272.2 278.4 0 463.8 161.8 463.8 290.2 0 77.8-65.4 121.8-124.2 140zM954.2 741.4c-67.2 74.6-166.4 103-258 83.6v0c-21.2-4.6-34.6-25.4-30-46.4 4.6-21.2 25.2-34.6 46.4-30 65.2 13.8 135.6-6.4 183.4-59.4s60.8-125.2 40.2-188.4v0c-6.6-20.6 4.6-42.6 25.2-49.4 20.6-6.6 42.6 4.6 49.4 25.2v.2c28.8 88.4 10.6 190-56.6 264.6zM850.8 648c-32.8 36.4-81.2 50.2-125.6 40.6-18.2-3.8-29.8-22-26-40.2 4-18.2 22-29.8 40-25.8v0c21.8 4.6 45.4-2.2 61.4-19.8 16-17.8 20.4-42 13.4-63.2v0c-5.6-17.6 4-36.8 21.8-42.6 17.8-5.6 36.8 4 42.6 21.8 14 43.4 5.2 93-27.6 129.2zM439.6 263.4c-6-10.2-19-15-29.2-10.8-10.2 4-13.2 15.6-7.4 25.4 6 9.8 18.6 14.6 28.6 10.8 10-3.6 13.6-15 8-25.4zM385.4 194.2c-16.4-26.2-51.6-37.6-78-25.6-26 11.8-33.8 42.2-17.4 67.8 16.2 25.4 50.2 36.8 76.4 25.8 26.6-11.4 35.2-41.6 19-68zM447 379.4c-80.6 21-171.8-19.2-206.8-90.2-35.8-72.4-1.2-153 80.2-179.4 84.4-27.2 184 14.6 218.6 92.6 34.2 76.6-8.4 155.2-92 177z" glyph-name="sina-weibo" unicode="&#xe94f;"/><glyph d="M136.294 209.07c-75.196 0-136.292-61.334-136.292-136.076 0-75.154 61.1-135.802 136.292-135.802 75.466 0 136.494 60.648 136.494 135.802-.002 74.742-61.024 136.076-136.494 136.076zM.156 612.07v-196.258c127.784 0 247.958-49.972 338.458-140.512 90.384-90.318 140.282-211.036 140.282-339.3h197.122c-.002 372.82-303.282 676.07-675.862 676.07zM.388 960v-196.356c455.782 0 826.756-371.334 826.756-827.644h196.856c0 564.47-459.254 1024-1023.612 1024z" glyph-name="rss" unicode="&#xe950;"/><glyph d="M928 960h-832c-52.8 0-96-43.2-96-96v-832c0-52.8 43.2-96 96-96h832c52.8 0 96 43.2 96 96v832c0 52.8-43.2 96-96 96zM279 128.8c-48 0-87 38.6-87 86.6 0 47.6 39 86.8 87 86.8 48.2 0 87-39.2 87-86.8 0-48-39-86.6-87-86.6zM497.4 128c0 81.8-31.8 158.8-89.4 216.4-57.8 57.8-134.4 89.6-216 89.6v125.2c237.6 0 431.2-193.4 431.2-431.2h-125.8zM719.6 128c0 291-236.6 528-527.4 528v125.2c360 0 653-293.2 653-653.2h-125.6z" glyph-name="rss2" unicode="&#xe951;"/><glyph d="M96 960l-96-160v-736h256v-128h128l128 128h160l288 288v608h-864zM832 416l-160-160h-160l-128-128v128h-192v576h640v-416zM608 704h96v-256h-96v256zM416 704h96v-256h-96v256z" glyph-name="twitch" unicode="&#xe952;"/><glyph d="M928 960h-832c-52.8 0-96-43.2-96-96v-832c0-52.8 43.2-96 96-96h832c52.8 0 96 43.2 96 96v832c0 52.8-43.2 96-96 96zM822.4 191.2l-348.4-114c-79.6-26-87.6-21.8-123.6 89.6l-88 272.6c-21 64.6-85 238.6-95.8 272-20 62-20 65.4 97 103.4 91.6 30 95.4 29 128.6-74.4 26.8-83.2 44-150.4 71.6-235.4l75-232 239.6 78.4c47.2 15.6 63 14.8 76.4-43.4l9.6-44c11.2-51-14.6-64-42-72.8z" glyph-name="lanyrd" unicode="&#xe953;"/><glyph d="M829 773.8v186.2h-186.2l-18.6-18.8-88-167.4-27.6-18.6h-313.6v-255.6h172.4l15.4-18.6-187.8-358.8v-186.2h186.2l18.6 18.8 88 167.4 27.6 18.6h313.6v255.6h-172.4l-15.4 18.8z" glyph-name="deviantart" unicode="&#xe954;"/><glyph d="M253 287.2c.2-.6 5.6-15.2 8.6-22.6 16.8-39.8 41-75.8 71.8-106.6s66.6-55 106.6-71.8c41.4-17.4 85.2-26.4 130.4-26.4s89.2 8.8 130.4 26.4c40 16.8 75.8 41 106.6 71.8s55 66.6 71.8 106.6c17.4 41.4 26.4 85.2 26.4 130.4s-8.8 89.2-26.4 130.4c-16.8 40-41 75.8-71.8 106.6s-66.6 55-106.6 71.8c-41.4 17.4-85.2 26.4-130.4 26.4-45.8 0-91.6-9.2-132.2-26.4-32.6-13.8-87.8-49.2-120-82.6l-.2-.2v276h463.4c16.8.2 16.8 23.8 16.8 31.4 0 7.8 0 31.2-17 31.4h-501c-13.6 0-22-11.4-22-21.8v-388.2c0-12.6 15.6-21.6 30.2-24.6 28.4-6 34.8 3 41.8 12.6l1 1.2c10.6 15.8 43.6 49 44 49.4 51.6 51.6 120.6 80 194.4 80 73.4 0 142.2-28.4 193.8-80 51.8-51.8 80.4-120.4 80.4-193.2 0-73-28.4-141.8-80-193.2-50.8-50.8-122-80-195-80-49.4 0-97.2 13.2-138.2 38.2l.2 236c0 31.4 13.6 65.8 36.6 91.6 26.2 29.6 62.2 45.8 101.6 45.8 38 0 73.6-14.4 100.2-40.6 26.2-26 40.8-60.8 40.8-97.8 0-78.8-62-140.6-141.2-140.6-15.2 0-43 6.8-44.2 7-16 4.8-22.8-17.4-25-24.8-8.6-28.2 4.4-33.8 7-34.6 25.4-8 42.2-9.4 64.2-9.4 111.8 0 202.8 91 202.8 202.8 0 111-91 201.2-202.6 201.2-54.8 0-106.2-21-144.8-58.8-36.8-36.2-57.8-84.4-57.8-132.4v-1.2c-.2-6-.2-147.6-.4-194l-.2.2c-21 23.2-41.8 58.8-55.6 95.2-5.4 14.2-17.6 11.8-34.2 6.6-8-2.2-30-9-25-25.2v0zM491.2 342.6c0-6.8 6.2-12.8 10-16.2l1.2-1.2c6.4-6.2 12.4-9.4 18-9.4 4.6 0 7.4 2.2 8.4 3.2 2.8 2.6 34.4 34.8 37.6 37.8l35.4-35.2c3.2-3.6 6.8-5.6 11-5.6 5.6 0 11.8 3.4 18.2 10 15.2 15.6 7.6 24 4 28l-35.8 35.8 37.4 37.6c8.2 8.8 1 18.2-6.2 25.4-10.4 10.4-20.6 13.2-27 7.2l-37.2-37.2-37.6 37.6c-2 2-4.6 3-7.2 3-5 0-11-3.4-17.6-10-11.6-11.6-14-19.6-8-26l37.6-37.4-37.4-37.4c-3.4-3.2-5-6.6-4.8-10zM573 850.2c-60 0-124-12.2-170.8-32.4-5-2-8-6-8.6-11.6-.6-5.4.8-12.4 4.4-21.6 3-7.4 10.6-27.2 25.6-21.4 48 18.4 101.2 28.4 149.4 28.4 54.8 0 108-10.8 158-31.8 39.8-16.8 77.2-41.2 118-76.4 3-2.6 6.2-3.8 9.4-3.8 8 0 15.6 7.8 22.2 15.2 10.8 12.2 18.4 22.4 7.6 32.6-39 36.8-81.6 64.4-134.4 86.8-57.2 23.8-118.2 36-180.8 36zM896.4 108.8v0c-7.2 7.2-13.4 11.4-18.8 13s-10.4.4-14.2-3.4l-3.6-3.6c-37.2-37.2-80.6-66.4-128.8-86.8-50-21.2-103-31.8-157.6-31.8-54.8 0-107.8 10.8-157.6 31.8-48.2 20.4-91.6 49.6-128.8 86.8-38.8 38.8-68 82.2-86.8 128.8-18.4 45.6-24.4 79.8-26.4 91-.2 1-.4 1.8-.4 2.4-2.6 13.2-14.8 14.2-32.2 11.4-7.2-1.2-29.4-4.6-27.4-20.4v-.4c5.8-37 16.2-73.2 30.8-107.6 23.4-55.4 57-105.2 99.8-148s92.6-76.2 148-99.8c57.4-24.2 118.4-36.6 181.2-36.6s123.8 12.4 181.2 36.6c55.4 23.4 105.2 57 148 99.8 0 0 2.4 2.4 3.8 3.8 4.4 5.4 8.6 14.4-10.2 33z" glyph-name="500px" unicode="&#xe955;"/><glyph d="M303.922 123.99c27.144 0 53.786 13.136 69.972 37.416 25.734 38.602 15.302 90.754-23.298 116.488l-66.074 44.048c11.308 3.08 23.194 4.756 35.478 4.756 74.392 0 134.696-60.304 134.696-134.698s-60.306-134.698-134.698-134.698c-72.404 0-131.444 57.132-134.548 128.774l71.954-47.968c14.322-9.548 30.506-14.118 46.518-14.118zM853.34 960c93.876 0 170.66-76.812 170.66-170.688v-682.628c0-93.936-76.784-170.684-170.66-170.684h-682.652c-93.876 0-170.688 76.75-170.688 170.682v203.028l121.334-80.888c-11.652-63.174 6.938-130.83 55.798-179.69 78.904-78.904 206.83-78.904 285.736 0 48.468 48.466 67.15 115.43 56.076 178.166l249.056 222.988c46.248 6.638 90.816 27.744 126.394 63.322 87.476 87.476 87.476 229.306 0 316.784-87.48 87.478-229.308 87.478-316.786 0-35.578-35.578-56.684-80.146-63.322-126.392v0l-204.694-310.23c-31.848-1.632-63.378-10.764-91.726-27.392l-217.866 145.244v277.69c0 93.876 76.81 170.688 170.686 170.688h682.654zM896 672c0 88.366-71.634 160-160 160s-160-71.634-160-160 71.634-160 160-160 160 71.634 160 160zM640 672c0 53.02 42.98 96 96 96s96-42.98 96-96-42.98-96-96-96-96 42.98-96 96z" glyph-name="steam2" unicode="&#xe956;"/><glyph d="M350.868 131.612c-60.274 15.06-93.856 62.97-93.962 134.064-.032 22.726 1.612 33.62 7.286 48.236 13.908 35.834 50.728 62.872 99.176 72.822 24.11 4.95 31.536 10.266 31.536 22.572 0 3.862 2.872 15.36 6.378 25.552 15.932 46.306 45.43 84.91 76.948 100.702 32.99 16.526 49.642 20.254 89.548 20.04 56.674-.304 84.952-12.598 124.496-54.128l21.75-22.842 19.484 6.742c94.3 32.636 188.306-22.916 195.888-115.756l2.072-25.398 18.57-6.65c53.032-19.004 77.96-58.904 73.442-117.556-2.958-38.358-20.89-68.98-49.3-84.184l-13.356-7.146-296.822-.57c-228.094-.44-300.6.368-313.134 3.5v0zM103.218 174.034c-36.176 9.086-74.506 42.854-92.48 81.47-10.196 21.906-10.738 25.128-10.738 63.88 0 36.864.87 42.778 8.988 61.08 17.11 38.582 49.894 66.46 91.03 77.408 8.684 2.312 16.842 6 18.128 8.196 1.29 2.198 2.722 14.164 3.182 26.592 2.866 77.196 50.79 145.214 117.708 167.056 36.154 11.8 83.572 12.898 122.896-3.726 12.47-5.274 11.068-6.404 37.438 30.14 15.594 21.612 45.108 44.49 70.9 58.18 27.838 14.776 56.792 21.584 91.412 21.494 96.768-.252 180.166-64.22 211.004-161.848 9.854-31.192 9.362-39.926-2.26-40.184-5.072-.112-19.604-3.064-32.292-6.558l-23.072-6.358-21.052 22.25c-59.362 62.734-156.238 76.294-238.592 33.396-32.9-17.138-59.34-41.746-79.31-73.81-14.236-22.858-32.39-65.504-32.39-76.094 0-7.51-5.754-11.264-30.332-19.782-76.094-26.376-120.508-87.282-120.476-165.218.01-28.368 6.922-63.074 16.52-82.956 3.618-7.494 5.634-14.622 4.484-15.836-2.946-3.106-97.608-2.06-110.696 1.228v0z" glyph-name="onedrive" unicode="&#xe957;"/><glyph d="M0 960v-1024h1024v1024h-1024zM832 128h-128v512h-192v-512h-320v640h640v-640z" glyph-name="npm" unicode="&#xe958;"/><glyph d="M512 853.4c-186.8 0-330.8-156.4-412.4-309.6-46-86.2-78.2-180.6-93-277.2-1.6-11-3.2-22-4.4-33.2-.6-6-1.2-12-1.6-18-.6-7.6-.2-10 3.8-16.4 12-19.4 26.2-37.4 42.2-53.6 32.8-33.6 72.6-59.4 114.8-79.4 96.2-45.4 204.8-61.8 310.4-65.4 109-3.6 221 5.4 325.2 39.4 89 29 174.8 79.6 224.2 161.4 5.4 8.8 1.6 21.8.6 32-1.2 12.2-2.8 24.2-4.8 36.2-3.6 23.6-8.4 46.8-14.2 70-11.6 47.2-27.4 93.6-46.6 138.2-69.6 161.6-198.4 334-381.6 369.6-20.6 4-41.6 6-62.6 6zM518.4 69.8c-114.2 0-238.6 10.2-341.4 65.2-40 21.4-80.8 52.4-100 95-5.6 12.4-3.6 17.2-1 31.8 1.8 9.4 2.6 18.6 6.8 27.4 5.8 12.2 11.8 24.2 18 36.2 21 40.6 43.6 80.8 69.8 118.6 13 18.6 26.8 37 42.8 53 11.2 11.2 24.8 23.2 40.6 27 48.4 11.6 85.4-44.4 114.8-72.6 14.2-13.6 33.2-29 54.4-26.4 14.6 1.8 27.6 13.2 38 22.6 35.4 31.8 63.8 71.2 93.2 108.2 14.6 18.2 29 36.6 44.8 54 10.6 11.8 22.2 25.2 36.4 32.8 25.4 13.8 57.8-14.6 75.4-29.2 30-25 56.6-54.2 82-83.8 24.2-28.2 47.6-56.8 68.2-87.8 31.8-48 59.4-99.2 84.6-151 5.4-11.2 7.2-18.8 9.2-31.2 1.2-6.8 3.8-14.6 2.8-21.6-1.4-9.8-8.2-20.4-13.2-28.4-12-19-28.2-35.4-46-49.2-74.6-57.8-175.6-77-267.4-85.6-37.6-3.6-75.2-5-112.8-5z" glyph-name="basecamp" unicode="&#xe959;"/><glyph d="M928 960h-832c-52.8 0-96-43.2-96-96v-832c0-52.8 43.2-96 96-96h832c52.8 0 96 43.2 96 96v832c0 52.8-43.2 96-96 96zM448 192c0-35.2-28.8-64-64-64h-128c-35.2 0-64 28.8-64 64v512c0 35.2 28.8 64 64 64h128c35.2 0 64-28.8 64-64v-512zM832 384c0-35.2-28.8-64-64-64h-128c-35.2 0-64 28.8-64 64v320c0 35.2 28.8 64 64 64h128c35.2 0 64-28.8 64-64v-320z" glyph-name="trello" unicode="&#xe95a;"/><glyph d="M128 448.008c0-148.026 88.322-275.968 216.43-336.578l-183.178 488.784c-21.308-46.508-33.252-97.982-33.252-152.206zM771.228 466.872c0 46.234-17.054 78.236-31.654 103.142-19.458 30.82-37.72 56.894-37.72 87.716 0 34.374 26.766 66.376 64.486 66.376 1.704 0 3.32-.204 4.976-.302-68.316 60.97-159.34 98.196-259.308 98.196-134.16 0-252.186-67.046-320.844-168.568 9.01-.282 17.506-.454 24.712-.454 40.154 0 102.34 4.752 102.34 4.752 20.69 1.182 23.132-28.434 2.458-30.822 0 0-20.81-2.368-43.952-3.55l139.834-405.106 84.044 245.456-59.822 159.65c-20.688 1.184-40.278 3.55-40.278 3.55-20.702 1.192-18.272 32.002 2.438 30.822 0 0 63.4-4.752 101.134-4.752 40.146 0 102.35 4.752 102.35 4.752 20.702 1.182 23.14-28.434 2.446-30.822 0 0-20.834-2.372-43.948-3.55l138.78-402.018 38.312 124.632c16.58 51.75 29.216 88.9 29.216 120.9zM518.742 415.296l-115.226-326.058c34.416-9.858 70.794-15.238 108.488-15.238 44.716 0 87.604 7.518 127.518 21.2-1.018 1.602-1.974 3.304-2.75 5.154l-118.03 314.942zM848.962 627.428c1.652-11.91 2.588-24.686 2.588-38.458 0-37.93-7.292-80.596-29.202-133.95l-117.286-330.272c114.162 64.828 190.938 185.288 190.938 323.258 0 65.03-17.06 126.16-47.038 179.422zM512 960c-282.77 0-512-229.23-512-512s229.23-512 512-512 512 229.23 512 512-229.23 512-512 512zM512 0c-247.424 0-448 200.576-448 448s200.576 448 448 448 448-200.576 448-448-200.576-448-448-448z" glyph-name="wordpress" unicode="&#xe95b;"/><glyph d="M266.004 683.322c32.832 32.844 86.002 32.844 118.804.032l7.826-7.868 101.104 101.156-7.874 7.88c-57.624 57.7-138.514 77.878-212.42 60.522-10.594 65.182-67.088 114.924-135.174 114.956-75.65 0-136.954-61.442-136.97-137.158 0-65.336 45.59-120 106.662-133.83-23.138-77.45-4.242-164.834 56.846-225.984l227.826-227.9 100.996 101.214-227.81 227.886c-32.682 32.722-32.742 86.126.184 119.094zM1022.712 822.842c.016 75.762-61.318 137.158-136.984 137.158-69.234 0-126.478-51.444-135.682-118.238-77.074 22.664-163.784 3.496-224.64-57.408l-227.84-227.9 101.102-101.172 227.766 227.856c32.94 32.966 85.988 32.906 118.684.184 32.8-32.83 32.8-86.114-.032-118.956l-7.794-7.836 101.01-101.248 7.858 7.928c60.458 60.566 79.678 146.756 57.612 223.638 67.15 8.834 118.94 66.364 118.94 135.994zM906.266 208.936c18.102 74.458-1.976 156.324-60.108 214.5l-227.49 227.992-101.102-101.122 227.52-228.012c32.94-32.996 32.864-86.096.184-118.848-32.802-32.814-86.004-32.814-118.836.03l-7.766 7.79-100.994-101.246 7.732-7.728c61.516-61.594 149.618-80.438 227.368-56.488 12.632-62.682 67.934-109.804 134.258-109.804 75.604 0 136.968 61.35 136.968 137.126 0 69.2-51.18 126.456-117.734 135.81zM612.344 431.316l-227.536-227.992c-32.71-32.768-86.034-32.828-118.944.124-32.818 32.904-32.832 86.098-.044 118.97l7.808 7.774-101.086 101.124-7.734-7.712c-58.76-58.802-78.56-141.834-59.45-216.982-60.398-14.26-105.358-68.634-105.358-133.496-.016-75.746 61.332-137.126 136.982-137.126 65.1.032 119.588 45.418 133.54 106.382 74.702-18.552 156.998 1.304 215.344 59.756l227.49 227.96-101.012 101.218z" glyph-name="joomla" unicode="&#xe95c;"/><glyph d="M512 960c-282.77 0-512-229.23-512-512s229.23-512 512-512 512 229.23 512 512-229.23 512-512 512zM824.636 370.402c-36.798-142.716-165.358-242.402-312.63-242.402-147.282 0-275.85 99.686-312.654 242.42-6.232 24.158 8.352 48.886 32.512 55.124 3.71.958 7.528 1.446 11.338 1.446 20.624 0 38.628-13.972 43.788-33.976 26.512-102.748 119.042-174.51 225.014-174.51 105.978 0 198.502 71.76 225 174.51 5.152 20.006 23.15 33.982 43.766 33.982 3.822 0 7.65-.49 11.376-1.456 11.692-3.016 21.526-10.418 27.668-20.842 6.142-10.416 7.854-22.596 4.822-34.296z" glyph-name="ello" unicode="&#xe95d;"/><glyph d="M567.656 223.084c-81.944-38.118-158.158-37.716-209.34-34.02-61.052 4.41-110.158 21.124-131.742 35.732-13.3 9.006-31.384 5.522-40.39-7.782-9.004-13.302-5.52-31.386 7.782-40.39 34.698-23.486 96.068-40.954 160.162-45.58 10.866-.784 22.798-1.278 35.646-1.278 55.782 0 126.626 5.316 202.42 40.57 14.564 6.778 20.878 24.074 14.104 38.64-6.776 14.566-24.076 20.872-38.642 14.108zM890.948 266.184c2.786 252.688 28.762 730.206-454.97 691.612-477.6-38.442-350.964-542.968-358.082-711.95-6.308-89.386-35.978-198.648-77.896-309.846h129.1c13.266 47.122 23.024 93.72 27.232 138.15 7.782-5.428 16.108-10.674 24.994-15.7 14.458-8.518 26.884-19.844 40.04-31.834 30.744-28.018 65.59-59.774 133.712-63.752 4.572-.262 9.174-.394 13.676-.394 68.896 0 116.014 30.154 153.878 54.382 18.14 11.612 33.818 21.64 48.564 26.452 41.91 13.12 78.532 34.296 105.904 61.252 4.276 4.208 8.242 8.538 11.962 12.948 15.246-55.878 36.118-118.758 59.288-181.504h275.65c-66.174 102.224-134.436 202.374-133.052 330.184zM124.11 403.648c0 .016 0 .03-.002.046-4.746 82.462 34.71 151.832 88.126 154.936 53.412 3.106 100.56-61.228 105.304-143.692 0-.014.004-.03.004-.044.256-4.446.368-8.846.37-13.206-16.924-4.256-32.192-10.436-45.872-17.63-.052.612-.092 1.216-.152 1.83 0 .008 0 .018 0 .026-4.57 46.81-29.572 82.16-55.852 78.958-26.28-3.204-43.88-43.75-39.312-90.558 0-.01.004-.018.004-.026 1.992-20.408 7.868-38.636 16.042-52.444-2.034-1.604-7.784-5.812-14.406-10.656-4.97-3.634-11.02-8.058-18.314-13.43-19.882 26.094-33.506 63.58-35.94 105.89zM665.26 199.822c-1.9-43.586-58.908-84.592-111.582-101.044l-.296-.096c-21.9-7.102-41.428-19.6-62.104-32.83-34.732-22.224-70.646-45.208-122.522-45.208-3.404 0-6.894.104-10.326.296-47.516 2.778-69.742 23.032-97.88 48.676-14.842 13.526-30.19 27.514-49.976 39.124l-.424.244c-42.706 24.104-69.212 54.082-70.908 80.194-.842 12.98 4.938 24.218 17.182 33.4 26.636 19.972 44.478 33.022 56.284 41.658 13.11 9.588 17.068 12.48 20 15.264 2.096 1.986 4.364 4.188 6.804 6.562 24.446 23.774 65.36 63.562 128.15 63.562 38.404 0 80.898-14.8 126.17-43.902 21.324-13.878 39.882-20.286 63.38-28.4 16.156-5.578 34.468-11.902 58.992-22.404l.396-.164c22.88-9.404 49.896-26.564 48.66-54.932zM652.646 302.194c-4.4 2.214-8.974 4.32-13.744 6.286-22.106 9.456-39.832 15.874-54.534 20.998 8.116 15.894 13.16 35.72 13.624 57.242 0 .01 0 .022 0 .03 1.126 52.374-25.288 94.896-58.996 94.976-33.71.078-61.95-42.314-63.076-94.686 0-.01 0-.018 0-.028-.038-1.714-.042-3.416-.02-5.11-20.762 9.552-41.18 16.49-61.166 20.76-.092 1.968-.204 3.932-.244 5.92 0 .016 0 .036 0 .05-1.938 95.412 56.602 174.39 130.754 176.402 74.15 2.014 135.828-73.7 137.772-169.11 0-.018 0-.038 0-.052.874-43.146-10.66-82.866-30.37-113.678z" glyph-name="tux" unicode="&#xe95e;"/><glyph d="M412.23 448.086c-47.708 24.518-94.086 36.958-137.88 36.958-5.956 0-11.952-.18-17.948-.708-55.88-4.624-106.922-19.368-139.75-30.828-8.708-3.198-17.634-6.576-26.83-10.306l-89.822-311.394c61.702 22.832 116.292 33.938 166.27 33.938 80.846 0 139.528-30.208 187.992-61.304 22.962 77.918 78.044 266.09 94.482 322.324-11.95 7.284-24.076 14.57-36.514 21.32zM528.348 368.93l-90.446-314.148c26.832-15.372 117.098-64.05 186.212-64.05 55.792 0 118.252 14.296 190.834 43.792l86.356 301.976c-58.632-18.922-114.876-28.52-167.464-28.52-95.95 0-163.114 31.098-205.492 60.95zM292.822 591.21c77.118-.798 134.152-30.208 181.416-60.502l92.752 317.344c-19.546 11.196-70.806 39.094-107.858 48.6-24.386 5.684-50.02 8.616-77.204 8.616-51.796-.976-108.388-13.946-172.888-39.8l-88.44-310.596c64.808 24.436 120.644 36.34 172.086 36.34.046-.002.136-.002.136-.002zM1024 761.876c-58.814-22.832-116.208-34.466-171.028-34.466-91.686 0-159.292 31.802-203.094 62.366l-91.95-318.236c61.746-39.708 128.29-59.878 198.122-59.878 56.948 0 115.94 13.68 175.462 40.688l-.182 2.222 3.734.886 88.936 306.418z" glyph-name="windows" unicode="&#xe95f;"/><glyph d="M.35 448l-.35 312.074 384 52.144v-364.218zM448 821.518l511.872 74.482v-448h-511.872zM959.998 384l-.126-448-511.872 72.016v375.984zM384 16.164l-383.688 52.594-.02 315.242h383.708z" glyph-name="windows8" unicode="&#xe960;"/><glyph d="M891.96 445.796c-18.086 0-35.348-3.52-51.064-9.856-10.506 114.358-110.29 204.06-232 204.06-29.786 0-58.682-5.63-84.318-15.164-9.96-3.702-12.578-7.52-12.578-14.916v-402.714c0-7.766 6.24-14.234 14.124-14.996.336-.034 363.536-.21 365.89-.21 72.904 0 131.986 56.816 131.986 126.894s-59.134 126.902-132.04 126.902zM400 192h32l16 224.22-16 223.78h-32l-16-223.78zM304 192h-32l-16 162.75 16 157.25h32l16-160zM144 192h32l16 128-16 128h-32l-16-128zM16 256h32l16 64-16 64h-32l-16-64z" glyph-name="soundcloud" unicode="&#xe961;"/><glyph d="M966.8 726.4c0-3.2-1-6.2-3-9-2-2.6-4.2-4-6.8-4-20-2-36.4-8.4-49-19.2-12.8-10.8-25.8-31.8-39.2-62.4l-206.4-465.4c-1.4-4.4-5.2-6.4-11.4-6.4-4.8 0-8.6 2.2-11.4 6.4l-115.8 242-133.2-242c-2.8-4.4-6.4-6.4-11.4-6.4-6 0-9.8 2.2-11.8 6.4l-202.6 465.2c-12.6 28.8-26 49-40 60.4s-33.6 18.6-58.6 21.2c-2.2 0-4.2 1.2-6 3.4-2 2.2-2.8 4.8-2.8 7.8 0 7.6 2.2 11.4 6.4 11.4 18 0 37-.8 56.8-2.4 18.4-1.6 35.6-2.4 51.8-2.4 16.4 0 36 .8 58.4 2.4 23.4 1.6 44.2 2.4 62.4 2.4 4.4 0 6.4-3.8 6.4-11.4s-1.4-11.2-4-11.2c-18-1.4-32.4-6-42.8-13.8s-15.6-18-15.6-30.8c0-6.4 2.2-14.6 6.4-24.2l167.4-378.4 95.2 179.6-88.6 185.8c-16 33.2-29 54.6-39.2 64.2s-25.8 15.4-46.6 17.6c-2 0-3.6 1.2-5.4 3.4s-2.6 4.8-2.6 7.8c0 7.6 1.8 11.4 5.6 11.4 18 0 34.6-.8 49.8-2.4 14.6-1.6 30-2.4 46.6-2.4 16.2 0 33.2.8 51.4 2.4 18.6 1.6 37 2.4 55 2.4 4.4 0 6.4-3.8 6.4-11.4s-1.2-11.2-4-11.2c-36.2-2.4-54.2-12.8-54.2-30.8 0-8 4.2-20.6 12.6-37.6l58.6-119 58.4 108.8c8 15.4 12.2 28.4 12.2 38.8 0 24.8-18 38-54.2 39.6-3.2 0-4.8 3.8-4.8 11.2 0 2.8.8 5.2 2.4 7.6s3.2 3.6 4.8 3.6c13 0 28.8-.8 47.8-2.4 18-1.6 33-2.4 44.6-2.4 8.4 0 20.6.8 36.8 2 20.4 1.8 37.6 2.8 51.4 2.8 3.2 0 4.8-3.2 4.8-9.6 0-8.6-3-13-8.8-13-21-2.2-38-8-50.8-17.4s-28.8-30.8-48-64.4l-78.2-143.2 105.2-214.4 155.4 361.4c5.4 13.2 8 25.4 8 36.4 0 26.4-18 40.4-54.2 42.2-3.2 0-4.8 3.8-4.8 11.2 0 7.6 2.4 11.4 7.2 11.4 13.2 0 28.8-.8 47-2.4 16.8-1.6 30.8-2.4 42-2.4 12 0 25.6.8 41.2 2.4 16.2 1.6 30.8 2.4 43.8 2.4 4 0 6-3.2 6-9.6z" glyph-name="wikipedia" unicode="&#xe962;"/><glyph d="M930 651.4c-47.8-212.2-195.4-324.2-428-324.2h-77.4l-53.8-341.6h-64.8l-3.4-22c-2.2-14.6 9-27.6 23.6-27.6h165.6c19.6 0 36.2 14.2 39.4 33.6l1.6 8.4 31.2 197.8 2 10.8c3 19.4 19.8 33.6 39.4 33.6h24.6c160.4 0 286 65.2 322.8 253.6 13.8 71.6 8.6 132.4-22.8 177.6zM831 882.8c-47.4 54-133.2 77.2-242.8 77.2h-318.2c-22.4 0-41.6-16.2-45-38.4l-132.6-840.4c-2.6-16.6 10.2-31.6 27-31.6h196.6l49.4 313-1.6-9.8c3.4 22.2 22.4 38.4 44.8 38.4h93.4c183.4 0 327 74.4 369 290 1.2 6.4 2.4 12.6 3.2 18.6 12.4 79.6 0 134-43.2 183z" glyph-name="paypal" unicode="&#xe963;"/><glyph d="M258.278 513.458l-146.532 253.802c93.818 117.464 238.234 192.74 400.254 192.74 187.432 0 351.31-100.736 440.532-251h-417.77c-7.504.65-15.092 1-22.762 1-121.874 0-224.578-83.644-253.722-196.542zM695.306 635h293.46c22.74-57.93 35.234-121.004 35.234-187 0-280.826-226.1-508.804-506.186-511.926l209.394 362.678c29.48 42.378 46.792 93.826 46.792 149.248 0 73.17-30.164 139.42-78.694 187zM326 448c0 102.56 83.44 186 186 186s186-83.44 186-186c0-102.56-83.44-186-186-186s-186 83.44-186 186zM582.182 195.558l-146.578-253.878c-246.532 36.884-435.604 249.516-435.604 506.32 0 91.218 23.884 176.846 65.696 251.024l209.03-362.054c41.868-89.112 132.476-150.97 237.274-150.97 24.3 0 47.836 3.34 70.182 9.558z" glyph-name="chrome" unicode="&#xe964;"/><glyph d="M1022.526 625.86l-11.86-76.08c0 0-16.954 140.856-37.732 193.514-31.846 80.688-46.014 80.04-46.108 79.922 21.33-54.204 17.462-83.324 17.462-83.324s-37.792 102.998-137.712 135.768c-110.686 36.282-170.57 26.364-177.488 24.486-1.05.008-2.064.01-3.03.01.818-.062 1.612-.146 2.426-.212-.034-.02-.09-.042-.082-.052.45-.548 122.306-21.302 143.916-50.996 0 0-51.76 0-103.272-14.842-2.328-.666 189.524-23.964 228.746-215.674 0 0-21.03 43.876-47.04 51.328 17.106-52.036 12.714-150.776-3.576-199.85-2.096-6.312-4.24 27.282-36.328 41.75 10.28-73.646-.616-190.456-51.708-222.632-3.982-2.504 32.03 115.31 7.242 69.762-142.708-218.802-311.404-100.972-387.248-49.11 38.866-8.462 112.654 1.318 145.314 25.612.042.03.078.056.118.086 35.468 24.252 56.472 41.964 75.334 37.772 18.874-4.214 31.438 14.726 16.78 31.53-14.676 16.838-50.314 39.978-98.524 27.366-34-8.904-76.134-46.522-140.448-8.432-49.364 29.25-54.012 53.546-54.45 70.376 1.218 5.966 2.754 11.536 4.576 16.624 5.682 15.87 22.912 20.658 32.494 24.438 16.256-2.792 30.262-7.862 44.968-15.406.19 4.894.252 11.39-.018 18.76 1.41 2.802.538 11.252-1.722 21.58-1.302 10.308-3.42 20.974-6.752 30.692.012.002.02.01.03.014.056.018.108.04.156.07.078.044.146.112.208.19.012.02.03.034.044.052.082.124.154.272.198.466 1.02 4.618 12.022 13.524 25.718 23.1 12.272 8.58 26.702 17.696 38.068 24.752 10.06 6.248 17.72 10.882 19.346 12.098.618.466 1.358 1.012 2.164 1.636.15.116.3.232.454.354.094.074.19.148.286.226 5.41 4.308 13.484 12.448 15.178 29.578.004.042.01.08.012.122.05.504.092 1.014.13 1.534.028.362.05.726.072 1.096.014.284.032.566.044.856.03.674.05 1.364.06 2.064 0 .04.002.076.004.116.022 1.658-.006 3.386-.104 5.202-.054 1.014-.126 1.93-.298 2.762-.008.044-.018.092-.028.136-.018.082-.036.164-.058.244-.036.146-.076.292-.122.43-.006.018-.01.032-.016.046-.052.16-.112.314-.174.464-.004.006-.004.01-.006.016-1.754 4.108-8.32 5.658-35.442 6.118-.026.002-.05.002-.076.002v0c-11.066.188-25.538.194-44.502.118-33.25-.134-51.628 32.504-57.494 45.132 8.04 44.46 31.276 76.142 69.45 97.626.722.406.58.742-.274.978 7.464 4.514-90.246.124-135.186-57.036-39.888 9.914-74.654 9.246-104.616 2.214-5.754.162-12.924.88-21.434 2.652-19.924 18.056-48.448 51.402-49.976 91.208 0 0-.092-.072-.252-.204-.02.382-.056.76-.072 1.142 0 0-60.716-46.664-51.628-173.882-.022-2.036-.064-3.986-.12-5.874-16.432-22.288-24.586-41.02-25.192-45.156-14.56-29.644-29.334-74.254-41.356-141.98 0 0 8.408 26.666 25.284 56.866-12.412-38.022-22.164-97.156-16.436-185.856 0 0 1.514 19.666 6.874 47.994 4.186-55.01 22.518-122.924 68.858-202.788 88.948-153.32 225.67-230.74 376.792-242.616 26.836-2.212 54.05-2.264 81.424-.186 2.516.178 5.032.364 7.55.574 30.964 2.174 62.134 6.852 93.238 14.366 425.172 102.798 378.942 616.198 378.942 616.198z" glyph-name="firefox" unicode="&#xe965;"/><glyph d="M734.202 331.17h236.05c1.82 16.37 2.548 33.098 2.548 50.196 0 80.224-21.534 155.468-59.124 220.266 38.88 103.308 37.492 190.988-14.556 243.39-49.496 49.28-182.29 41.28-332.412-25.198-11.104.84-22.318 1.272-33.638 1.272-206.048 0-378.926-141.794-426.708-332.85 64.638 82.754 132.638 142.754 223.478 186.448-8.26-7.74-56.454-55.652-64.56-63.764-239.548-239.478-315.09-552.306-233.806-633.604 61.786-61.774 173.758-51.342 302.376 11.648 59.806-30.458 127.5-47.63 199.218-47.63 193.134 0 356.804 124.316 416.09 297.448h-237.868c-32.734-60.382-96.748-101.48-170.218-101.48-73.468 0-137.484 41.098-170.216 101.48-14.55 27.274-22.914 58.554-22.914 91.656v.722h386.26zM348.302 447.196c5.456 97.11 86.2 174.584 184.766 174.584s179.312-77.472 184.766-174.584h-369.532zM896.966 796.192c33.526-33.88 32.688-96.214 4.012-174.022-49.136 74.908-120.518 133.936-204.792 167.64 90.106 38.638 163.406 43.756 200.78 6.382zM93.482-7.256c-42.782 42.796-29.884 132.618 25.23 240.832 34.308-96.27 101.156-177.09 187.336-229.154-95.43-43.318-173.536-50.674-212.566-11.678z" glyph-name="IE" unicode="&#xe966;"/><glyph d="M15.4 505.4c30 236.8 191.6 451.6 481.2 454.6 174.8-3.4 318.6-82.6 404.2-233.6 43-78.8 56.4-161.6 59.2-253v-107.4h-642.6c3-265 390-256 556.6-139.2v-215.8c-97.6-58.6-319-111-490.4-43.6-146 54.8-250 207.6-249.4 354.6-4.8 190.6 94.8 316.8 249.4 388.6-32.8-40.6-57.8-85.4-70.8-163h362.8c0 0 21.2 216.8-205.4 216.8-213.6-7.4-367.6-131.6-454.8-259v0z" glyph-name="edge" unicode="&#xe967;"/><glyph d="M512 960c-282.8 0-512-229.2-512-512s229.2-512 512-512 512 229.2 512 512-229.2 512-512 512zM958.4 487.2l-1 10.6c.2-3.6.6-7 1-10.6zM888.4 691.2l-7.2 10.8c2.4-3.6 4.8-7.2 7.2-10.8zM860.6 729.4l-4.4 5.4c1.6-1.8 3-3.6 4.4-5.4zM798.6 792.4l-5.4 4.4c2-1.6 3.6-3 5.4-4.4zM766 817.2l-10.8 7.2c3.6-2.4 7.2-4.8 10.8-7.2zM561.8 893.2l-10.8 1c3.6-.2 7.2-.6 10.8-1zM472.8 894.4l-10.8-1c3.6.2 7.2.6 10.8 1zM268.8 824.4l-10.8-7.2c3.6 2.4 7.2 4.8 10.8 7.2zM230.6 796.6l-5.2-4.2c1.8 1.4 3.4 2.8 5.2 4.2zM167.6 734.6l-4.4-5.4c1.6 1.8 3 3.6 4.4 5.4zM142.8 702l-7.2-10.8c2.4 3.6 4.8 7.2 7.2 10.8zM66.8 497.8l-1-10.8c.2 3.6.6 7.2 1 10.8zM65.6 408.8l1-10.8c-.2 3.6-.6 7.2-1 10.8zM135.6 205l7.2-10.8c-2.4 3.4-4.8 7-7.2 10.8zM144 192.4l79.8 53.4-8.8 13.4-79.8-53.4c-36.2 56.2-60 120.8-68 190.4l47.8 4.8-1.6 16-47.8-4.8c-.8 9.2-1.2 18.6-1.4 28h96v16h-96c.2 9.4.6 18.6 1.4 28l47.8-4.6 1.6 16-47.8 4.6c8 69.6 32 134.2 68.2 190.4l79.8-53.4 8.8 13.4-80 53c5.4 7.6 10.8 15.2 16.6 22.4l37-30.4 10.2 12.4-37 30.4c6 7.2 12.4 14 18.8 20.8l67.8-67.8 11.4 11.4-67.8 67.8c6.8 6.4 13.6 12.8 20.6 18.8l30.4-37.2 12.4 10.2-30.4 37c7.4 5.8 14.8 11.4 22.4 16.8l53.4-79.8 13.4 8.8-53.4 79.8c56.2 36.2 120.8 60 190.4 68l4.8-47.8 16 1.6-4.8 47.8c9.2.8 18.6 1.2 28 1.4v-96h16v96c9.4-.2 18.6-.6 28-1.4l-4.6-47.8 16-1.6 4.6 47.8c69.6-8 134.2-32 190.4-68.2l-53.4-79.8 13.4-8.8 53.4 79.8c7.6-5.4 15.2-10.8 22.4-16.6l-30.4-37 12.4-10.2 30.4 37c7.2-6 14-12.4 20.8-18.8l-25.6-25-350-233.4-233.4-350-25-25c-6.4 6.8-12.8 13.6-18.8 20.6l37 30.4-10.2 12.4-37-30.4c-5.8 7.2-11.2 14.8-16.6 22.4zM167.6 161.4c-1.4 1.8-2.8 3.4-4.2 5.2l4.2-5.2zM225.4 103.6l5.2-4.2c-1.8 1.4-3.4 2.8-5.2 4.2zM258 79l10.8-7.2c-3.6 2.2-7.2 4.6-10.8 7.2zM462.2 2.8l10.8-1c-3.6.2-7.2.6-10.8 1zM551.2 1.6l10.6 1c-3.6-.2-7-.6-10.6-1zM755.2 71.6l10.8 7.2c-3.6-2.4-7.2-4.8-10.8-7.2zM793.4 99.4l5.4 4.4c-1.8-1.6-3.6-3-5.4-4.4zM828.4 130.8l.8.8c-.2-.2-.6-.6-.8-.8zM856.4 161.4l4.4 5.4c-1.6-1.8-3-3.6-4.4-5.4zM863.4 170l-37 30.4-10.2-12.4 37-30.4c-6-7.2-12.4-14-18.8-20.8l-67.8 67.8-11.4-11.4 67.8-67.8c-6.8-6.4-13.6-12.8-20.6-18.8l-30.4 37.2-12.4-10.2 30.4-37c-7.4-5.8-14.8-11.4-22.4-16.8l-53.4 79.8-13.4-8.8 53.4-79.8c-56.2-36.2-120.8-60-190.4-68l-4.8 47.8-16-1.6 4.8-47.8c-9.2-.8-18.6-1.2-28-1.4v96h-16v-96c-9.4.2-18.6.6-28 1.4l4.6 47.8-16 1.6-4.6-47.8c-69.6 8-134.2 32-190.4 68.2l53.4 79.8-13.4 8.8-53-79.8c-7.6 5.4-15.2 10.8-22.4 16.6l30.4 37-12.4 10.2-30.4-37c-7.2 6-14 12.4-20.8 18.8l25.2 25 350 233.4 233.4 350 25 25c6.4-6.8 12.8-13.6 18.8-20.6l-37-30.4 10.2-12.4 37 30.4c5.8-7.4 11.4-14.8 16.8-22.4l-79.8-53.4 8.8-13.4 79.8 53.4c36.2-56.2 60-120.8 68-190.4l-47.8-4.8 1.6-16 47.8 4.8c.8-9.2 1.2-18.6 1.4-28h-96v-16h96c-.2-9.4-.6-18.6-1.4-28l-47.8 4.6-1.6-16 47.8-4.6c-8-69.6-32-134.2-68.2-190.4l-79.8 53.4-8.8-13.4 79.8-53.4c-5.2-7.2-10.8-14.6-16.6-22zM958.4 409c-.4-3.6-.6-7.2-1-10.8l1 10.8zM888.4 204.8c-2.4-3.6-4.8-7.2-7.2-10.8l7.2 10.8zM432.535 888.925l18.73-94.157-15.693-3.122-18.73 94.157 15.693 3.122zM591.656 7.05l-18.73 94.157 15.693 3.122 18.73-94.157-15.693-3.122zM389.628 879.11l13.939-45.931-15.31-4.646-13.939 45.931 15.31 4.646zM634.434 17.113l-13.939 45.931 15.31 4.646 13.939-45.931-15.31-4.646zM348.014 864.901l36.739-88.694-14.782-6.123-36.739 88.694 14.782 6.123zM676.123 31.035l-36.739 88.694 14.782 6.123 36.739-88.694-14.782-6.123zM293.62 839.341l14.11 7.544 22.632-42.331-14.11-7.544-22.632 42.331zM730.101 56.711l-14.11-7.544-22.632 42.331 14.11 7.544 22.632-42.331zM120.601 666.174l42.336-22.622-7.541-14.112-42.336 22.622 7.541 14.112zM903.244 229.805l-42.336 22.622 7.541 14.112 42.336-22.622-7.541-14.112zM183.811 575.377l-88.694 36.739 6.123 14.782 88.694-36.739-6.123-14.782zM840.32 320.699l88.694-36.739-6.123-14.782-88.694 36.739 6.123 14.782zM85.543 585.613l45.936-13.93-4.643-15.312-45.936 13.93 4.643 15.312zM938.308 310.333l-45.936 13.93 4.643 15.312 45.936-13.93-4.643-15.312zM74.069 543.218l94.157-18.73-3.122-15.693-94.157 18.73 3.122 15.693zM949.741 352.757l-94.157 18.73 3.122 15.693 94.157-18.73-3.122-15.693zM70.965 368.452l94.157 18.73 3.122-15.693-94.157-18.73-3.122 15.693zM952.842 527.573l-94.157-18.73-3.122 15.693 94.157 18.73 3.122-15.693zM80.974 325.486l45.931 13.939 4.646-15.31-45.931-13.939-4.646 15.31zM942.969 570.293l-45.931-13.939-4.646 15.31 45.931 13.939 4.646-15.31zM101.142 269.088l-6.123 14.782 88.694 36.739 6.123-14.782-88.694-36.739zM922.794 626.769l6.122-14.782-88.694-36.73-6.122 14.782 88.694 36.73zM120.824 229.733l-7.544 14.11 42.331 22.632 7.544-14.11-42.331-22.632zM903.455 666.215l7.544-14.11-42.331-22.632-7.544 14.11 42.331 22.632zM307.878 49.154l-14.11 7.542 22.627 42.331 14.11-7.542-22.627-42.331zM716.073 846.926l14.112-7.541-22.622-42.336-14.112 7.541 22.622 42.336zM333.267 37.201l36.739 88.694 14.782-6.123-36.739-88.694-14.782 6.123zM690.884 858.89l-36.739-88.694-14.782 6.123 36.739 88.694 14.782-6.123zM389.634 16.972l-15.31 4.645 13.934 45.931 15.31-4.645-13.934-45.931zM634.349 879.118l15.312-4.642-13.925-45.936-15.312 4.642 13.925 45.936zM432.472 7.161l-15.693 3.122 18.73 94.157 15.693-3.122-18.73-94.157zM591.536 889.031l15.693-3.122-18.73-94.157-15.693 3.122 18.73 94.157z" glyph-name="safari" unicode="&#xe968;"/><glyph d="M1024 448v0 0c0-151.6-66-288-170.8-381.6-131.4-64-253.8-19.2-294.2 8.8 129 28.2 226.4 184.2 226.4 372.8s-97.4 344.6-226.4 373c40.6 28 163 72.8 294.2 8.8 104.8-93.8 170.8-230.2 170.8-381.8v0 0zM343.4 736.6c-56.6-66.8-93.2-165.6-95.6-276.6 0-.2 0-23.8 0-24.2 2.4-110.8 39.2-209.6 95.8-276.4 73.4-95.4 182.6-155.8 304.6-155.8 75 0 145.2 22.8 205.2 62.6-90.8-81-210.4-130.2-341.4-130.2-8.2 0-16.4.2-24.4.6-271.4 12.8-487.6 236.8-487.6 511.4 0 282.8 229.2 512 512 512 .6 0 1.2 0 2 0 130.4-.4 249.2-49.6 339.4-130.4-60 39.8-130.2 62.8-205.2 62.8-122 0-231.2-60.4-304.8-155.8z" glyph-name="opera" unicode="&#xe969;"/><glyph d="M1004.692 493.606l-447.096 447.08c-25.738 25.754-67.496 25.754-93.268 0l-103.882-103.876 78.17-78.17c12.532 5.996 26.564 9.36 41.384 9.36 53.02 0 96-42.98 96-96 0-14.82-3.364-28.854-9.362-41.386l127.976-127.974c12.532 5.996 26.566 9.36 41.386 9.36 53.02 0 96-42.98 96-96s-42.98-96-96-96-96 42.98-96 96c0 14.82 3.364 28.854 9.362 41.386l-127.976 127.974c-3.042-1.456-6.176-2.742-9.384-3.876v-266.968c37.282-13.182 64-48.718 64-90.516 0-53.02-42.98-96-96-96s-96 42.98-96 96c0 41.796 26.718 77.334 64 90.516v266.968c-37.282 13.18-64 48.72-64 90.516 0 14.82 3.364 28.852 9.36 41.384l-78.17 78.17-295.892-295.876c-25.75-25.776-25.75-67.534 0-93.288l447.12-447.08c25.738-25.75 67.484-25.75 93.268 0l445.006 445.006c25.758 25.762 25.758 67.54-.002 93.29z" glyph-name="git" unicode="&#xe96a;"/><glyph d="M945.75 591.958l-448 298.666c-10.748 7.166-24.752 7.166-35.5 0l-448-298.666c-8.902-5.934-14.25-15.926-14.25-26.624v-298.666c0-10.7 5.348-20.692 14.25-26.624l448-298.666c5.374-3.584 11.562-5.376 17.75-5.376s12.376 1.792 17.75 5.376l448 298.666c8.902 5.934 14.25 15.926 14.25 26.624v298.666c0 10.698-5.348 20.69-14.25 26.624zM480 305.124l-166.312 110.876 166.312 110.874 166.312-110.874-166.312-110.876zM512 582.458v221.75l358.31-238.876-166.31-110.874-192 128zM448 582.458l-192-128-166.312 110.874 358.312 238.876v-221.75zM198.312 416l-134.312-89.542v179.082l134.312-89.54zM256 377.542l192-128v-221.748l-358.312 238.872 166.312 110.876zM512 249.542l192 128 166.312-110.876-358.312-238.874v221.75zM761.688 416l134.312 89.54v-179.084l-134.312 89.544z" glyph-name="codepen" unicode="&#xe96b;"/><glyph d="M928 544c-28.428 0-53.958-12.366-71.536-32h-189.956l134.318 134.318c26.312-1.456 53.11 7.854 73.21 27.956 37.49 37.49 37.49 98.274 0 135.764s-98.274 37.49-135.766 0c-20.102-20.102-29.41-46.898-27.956-73.21l-134.314-134.318v189.954c19.634 17.578 32 43.108 32 71.536 0 53.02-42.98 96-96 96s-96-42.98-96-96c0-28.428 12.366-53.958 32-71.536v-189.954l-134.318 134.318c1.454 26.312-7.856 53.11-27.958 73.21-37.49 37.49-98.274 37.49-135.764 0-37.49-37.492-37.49-98.274 0-135.764 20.102-20.102 46.898-29.412 73.212-27.956l134.32-134.318h-189.956c-17.578 19.634-43.108 32-71.536 32-53.02 0-96-42.98-96-96s42.98-96 96-96c28.428 0 53.958 12.366 71.536 32h189.956l-134.318-134.318c-26.314 1.456-53.11-7.854-73.212-27.956-37.49-37.492-37.49-98.276 0-135.766 37.492-37.49 98.274-37.49 135.764 0 20.102 20.102 29.412 46.898 27.958 73.21l134.316 134.32v-189.956c-19.634-17.576-32-43.108-32-71.536 0-53.02 42.98-96 96-96s96 42.98 96 96c0 28.428-12.366 53.958-32 71.536v189.956l134.318-134.318c-1.456-26.312 7.854-53.11 27.956-73.21 37.492-37.49 98.276-37.49 135.766 0s37.49 98.274 0 135.766c-20.102 20.102-46.898 29.41-73.21 27.956l-134.32 134.316h189.956c17.576-19.634 43.108-32 71.536-32 53.02 0 96 42.98 96 96s-42.982 96-96.002 96z" glyph-name="svg" unicode="&#xe96c;"/><glyph d="M259.544 448.002c0 65.416 53.03 118.446 118.446 118.446s118.446-53.03 118.446-118.446c0-65.416-53.03-118.446-118.446-118.446s-118.446 53.03-118.446 118.446zM512.004 960c-282.774 0-512.004-229.232-512.004-512s229.226-512 512.004-512c282.764 0 511.996 229.23 511.996 512 0 282.768-229.23 512-511.996 512zM379.396.718c-153.956 89.574-257.468 256.324-257.468 447.282s103.512 357.708 257.462 447.282c154.01-89.562 257.59-256.288 257.59-447.282 0-190.988-103.58-357.718-257.584-447.282z" glyph-name="IcoMoon" unicode="&#xe96d;"/><glyph d="M853.342 960h-682.656c-93.874 0-170.686-76.81-170.686-170.69v-682.622c0-93.938 76.812-170.688 170.686-170.688h682.656c93.876 0 170.658 76.75 170.658 170.69v682.62c0 93.88-76.782 170.69-170.658 170.69zM853.342 832c7.988 0 15.546-2.334 22.02-6.342l-363.362-300.404-363.354 300.4c6.478 4.01 14.044 6.346 22.04 6.346h682.656zM170.686 64c-1.924 0-3.82.146-5.684.408l225.626 312.966-29.256 29.254-233.372-233.37v611.138l384-464.396 384 464.394v-611.136l-233.372 233.37-29.254-29.254 225.628-312.968c-1.858-.26-3.746-.406-5.662-.406h-682.654z" glyph-name="mail2" unicode="&#xe9a7;"/><glyph d="M512 960c-282.77 0-512-229.23-512-512s229.23-512 512-512 512 229.23 512 512-229.23 512-512 512zM256 704h512c9.138 0 18.004-1.962 26.144-5.662l-282.144-329.168-282.144 329.17c8.14 3.696 17.006 5.66 26.144 5.66zM192 256v384c0 1.34.056 2.672.14 4l187.664-218.942-185.598-185.598c-1.444 5.336-2.206 10.886-2.206 16.54zM768 192h-512c-5.654 0-11.202.762-16.54 2.208l182.118 182.118 90.422-105.498 90.424 105.494 182.116-182.12c-5.34-1.44-10.886-2.202-16.54-2.202zM832 256c0-5.654-.762-11.2-2.206-16.54l-185.6 185.598 187.666 218.942c.084-1.328.14-2.66.14-4v-384z" glyph-name="mail4" unicode="&#xe9a8;"/></font>
</defs>
</svg>
